q3r3
武林盟主

[2018] [其他] [惊悚] [BD-720P] 谎言之城 City.of.Lies.2018.720p.BluRay.x264-PiGNUS 5.05GB

-->

帖子完整标题:谎言之城 City.of.Lies.2018.720p.BluRay.x264-PiGNUS 5.05GB



◎译  名 谎言之城/LAbyrinth/谁杀了大个子(台)/迷宫
◎片  名 City of Lies
◎年  代 2018
◎产  地 英国,美国
◎类  别 惊悚 / 传记 / 犯罪
◎语  言 英语,西班牙语
◎上映日期 2018-12-08(意大利纽尔电影节) / 2021-03-19(美国)
◎豆瓣评分 7.0/10 from 995 users
◎豆瓣链接 https://movie.douban.com/subject/26916153/
◎片  长 112分钟
◎导  演 布拉德·福尔曼 Brad Furman
◎编  剧 兰德尔·沙利文 Randall Sullivan / 克里斯蒂安·孔特雷拉斯 Christian Contreras
◎主  演 约翰尼·德普 Johnny Depp
      福里斯特·惠特克 Forest Whitaker
      托比·哈斯 Toby Huss
      戴顿·考利 Dayton Callie
      小尼尔·布朗 Neil Brown Jr.
      路易斯·赫特哈姆 Louis Herthum
      谢伊·惠格姆 Shea Whigham
      山德·贝克利 Xander Berkeley
      沙米尔·安德森 Shamier Anderson
      劳伦斯·梅森 Laurence Mason
      克里斯蒂安·乔治 Christian George
      迈克尔·帕尔 Michael Paré
      阿明·约瑟夫 Amin Joseph
      乔什·哈德威克 Josh Hardwick
      格伦·普拉默 Glenn Plummer
      基斯·斯扎拉巴基克 Keith Szarabajka
      安格拉·戈茨 Angela Gots
      洛克蒙·邓巴 Rockmond Dunbar
      彼得·格林纳 Peter Greene
      维恩·埃维雷特 Wynn Everett
      范·埃佩尔森 Van Epperson
      凯文·查普曼 Kevin Chapman
      哈维尔·格拉杰达 Javier Grajeda
      吉姆·戴佛提 Jim Devoti
      奥巴·巴巴图德 Obba Babatundé
      普莱德·格林 Pride Grinn
      约瑟夫·费兰特 Joseph Ferrante
      丹尼斯迪普 Dennis Depew
      贾马尔·伍拉德 Jamal Woolard
      科里·哈德里克 Cory Hardrict
      克里斯托弗·艾伯 Christopher Aber
      克里斯·贾伊·阿历克斯 Chris Jai Alex
      阿什莉·比勒 Ashleigh Biller
      里安·比托普 Rian Bishop
      尼雅迪恩 Nea Dune
      弗雷德里克·基夫 Frederick Keeve
      布兰顿·莫拉勒 Brandon Molale
      梁心羽 Jiaoying Liang
      雅各布·泰勒 Jacob Taylor
      Marion 'Suge' Knight
      詹妮弗·拉马尔 Jennifer Lamar
      雷·梅伦德斯 Ray Melendez
      The Notorious B.I.G.
      图派克·夏库尔 Tupac Shakur
      达里恩·希利斯-埃文斯 Darien Sills-Evans
      史努比狗狗 Snoop Dogg

◎标  签 犯罪 | 剧情 | 美国 | 2018 | 真实事件改编 | 传记 | 英国 | 悬疑

◎简  介

  改编自真实悬案,美国东西岸两大嘻哈教主声名狼藉先生及图帕克在音乐上引发东西岸的斗争,两人接连被枪杀身亡,一直没有成功破案,让他们更成为传奇人物。追踪此案 20 年的警察(约翰尼·德普饰)遇上了一个想挽救事业危机的记者(福里斯特·惠特克 饰),二人决定联手找出命案真相,调查的过程中揭发了执法机官的谎言和贪污行为......

Video
ID : 1
Format : AVC
Format/Info : Advanced Video Codec
Format profile : [email protected]
Format settings : CABAC / 8 Ref Frames
Format settings, CABAC : Yes
Format settings, Reference frames : 8 frames
Codec ID : V_MPEG4/ISO/AVC
Duration : 1 h 51 min
Bit rate : 5 660 kb/s
Width : 1 280 pixels
Height : 536 pixels
Display aspect ratio : 2.40:1
Frame rate mode : Constant
Frame rate : 23.976 (24000/1001/189150) FPS
Color space : YUV
Chroma subsampling : 4:2:0
Bit depth : 8 bits
Scan type : Progressive
Bits/(Pixel*Frame) : 0.344
Stream size : 4.42 GiB (88%)
Writing library : x264 core 163 r3059 b684ebe
Encoding settings : cabac=1 / ref=8 / deblock=1:-3:-3 / analyse=0x3:0x133 / me=umh / subme=9 / psy=1 / psy_rd=1.00:0.00 / mixed_ref=1 / me_range=16 / chroma_me=1 / trellis=2 / 8x8dct=1 / cqm=0 / deadzone=21,11 / fast_pskip=1 / chroma_qp_offset=-2 / threads=17 / lookahead_threads=1 / sliced_threads=0 / nr=0 / decimate=1 / interlaced=0 / bluray_compat=0 / constrained_intra=0 / bframes=3 / b_pyramid=2 / b_adapt=2 / b_bias=0 / direct=3 / weightb=1 / open_gop=0 / weightp=2 / keyint=250 / keyint_min=23 / scenecut=40 / intra_refresh=0 / rc_lookahead=60 / rc=crf / mbtree=1 / crf=15.0 / qcomp=0.60 / qpmin=0 / qpmax=69 / qpstep=4 / ip_ratio=1.40 / aq=1:1.00
Default : Yes
Forced : No

Audio #1
ID : 2
Format : AC-3
Format/Info : Audio Coding 3
Commercial name : Dolby Digital
Codec ID : A_AC3
Duration : 1 h 51 min
Bit rate mode : Constant
Bit rate : 640 kb/s
Channel(s) : 6 channels
Channel layout : L R C LFE Ls Rs
Sampling rate : 48.0 kHz
Frame rate : 31.250 FPS (1536 SPF)
Compression mode : Lossy
Stream size : 512 MiB (10%)
Language : English
Service kind : Complete Main
Default : Yes
Forced : No

Audio #2
ID : 3
Format : AAC LC
Format/Info : Advanced Audio Codec Low Complexity
Codec ID : A_AAC-2
Duration : 1 h 51 min
Bit rate : 107 kb/s
Channel(s) : 2 channels
Channel layout : L R
Sampling rate : 48.0 kHz
Frame rate : 46.875 FPS (1024 SPF)
Compression mode : Lossy
Delay relative to video : 9 ms
Stream size : 85.4 MiB (2%)
Title : Commentary
Language : English
Default : No
Forced : No

Text #1
ID : 4
Format : PGS
Muxing mode : zlib
Codec ID : S_HDMV/PGS
Codec ID/Info : Picture based subtitle format used on BDs/HD-DVDs
Duration : 1 h 49 min
Bit rate : 49.8 kb/s
Count of elements : 3718
Stream size : 38.9 MiB (1%)
Title : English SDH
Language : English
Default : No
Forced : No

Text #2
ID : 5
Format : PGS
Muxing mode : zlib
Codec ID : S_HDMV/PGS
Codec ID/Info : Picture based subtitle format used on BDs/HD-DVDs
Duration : 1 h 45 min
Bit rate : 44.3 kb/s
Count of elements : 3062
Stream size : 33.4 MiB (1%)
Title : Spanish
Language : Spanish
Default : No
Forced : No

Menu
00:00:00.000 : Chapter 01
00:03:04.893 : Chapter 02
00:10:44.811 : Chapter 03
00:16:47.798 : Chapter 04
00:24:18.999 : Chapter 05
00:31:00.650 : Chapter 06
00:38:01.321 : Chapter 07
00:43:17.970 : Chapter 08
00:50:25.814 : Chapter 09
00:57:47.506 : Chapter 10
01:04:32.619 : Chapter 11
01:14:34.637 : Chapter 12
01:23:22.956 : Chapter 13
01:29:19.771 : Chapter 14
01:35:23.843 : Chapter 15
01:41:29.458 : Chapter 16
01:51:50.495 : Chapter 17





1 个附件 售价 大小 下载 时间

City.of.Lies.2018.720p.BluRay.x264-PiGNUS.torrent 0 金币 25.95K 1883 次 8天前

#1楼
发帖时间:2021-06-11 11:58:39   |   回复数:1
ken.sting
一派掌门
感谢楼主分享精彩资源!
8天前 #2楼
游客组