q3r3
武林盟主

[2018] [欧美] [其他] [BD-1080P] 三级片:香港剥削电影不为人知的故事 Category.III.The.Untold.Story.of.Hong.Kong.Exploitation.Cinema

-->

帖子完整标题:三级片:香港剥削电影不为人知的故事 Category.III.The.Untold.Story.of.Hong.Kong.Exploitation.Cinema.2018.1080p.BluRay.x264-BiPOLAR 5.96GB



◎译  名 三级片:香港剥削电影不为人知的故事/Category III: The Untold Story of Hong Kong Exploitation Cinema
◎片  名 Category III: The Untold Story of Hong Kong Exploitation Cinema
◎年  代 2018
◎产  地 英国
◎类  别 纪录片
◎语  言 英语
◎上映日期 2018-10-08(西班牙锡切斯电影节)
◎豆瓣评分 6.5/10 from 803 users
◎豆瓣链接 https://movie.douban.com/subject/30343068/
◎片  长 84分钟
◎导  演 卡鲁姆·瓦德尔 Calum Waddell
◎主  演 陈翊恒 Daniel Chan Yee-Heng
      甘国亮 Kwok-Leung Gan
      何志强 Godfrey Ho Jeung-Keung
      何超仪 Josie Ho
      龙比意 Bey Logan
      黄秋生 Anthony Wong Chau-Sang
      卡鲁姆·瓦德尔 Calum Waddell

◎标  签 香港电影 | 香港 | 电影 | 纪录片 | 港影 | 一路向西 | 英国 | 剥削电影

◎简  介

  Until the end of the nineties, the Hong Kong cinema that explored the limits of sex and violence without shame was labeled "category III". Calum Waddell's new documentary, an exhaustive investigator of the mysteries of genre film, is immersed, through interviews and archival images, in one of the most wild and exciting popular film cycles.

Video
ID : 1
Format : AVC
Format/Info : Advanced Video Codec
Format profile : [email protected]
Format settings : CABAC / 4 Ref Frames
Format settings, CABAC : Yes
Format settings, Reference frames : 4 frames
Codec ID : V_MPEG4/ISO/AVC
Duration : 1 h 23 min
Bit rate : 9 558 kb/s
Width : 1 920 pixels
Height : 1 080 pixels
Display aspect ratio : 16:9
Frame rate mode : Constant
Frame rate : 23.976 (24000/1001/189150) FPS
Color space : YUV
Chroma subsampling : 4:2:0
Bit depth : 8 bits
Scan type : Progressive
Bits/(Pixel*Frame) : 0.192
Stream size : 5.55 GiB (93%)
Writing library : x264 core 163 r3059 b684ebe
Encoding settings : cabac=1 / ref=4 / deblock=1:-3:-3 / analyse=0x3:0x133 / me=umh / subme=10 / psy=1 / psy_rd=1.00:0.15 / mixed_ref=1 / me_range=24 / chroma_me=1 / trellis=2 / 8x8dct=1 / cqm=0 / deadzone=21,11 / fast_pskip=1 / chroma_qp_offset=-3 / threads=18 / lookahead_threads=3 / sliced_threads=0 / nr=0 / decimate=1 / interlaced=0 / bluray_compat=0 / constrained_intra=0 / bframes=8 / b_pyramid=2 / b_adapt=2 / b_bias=0 / direct=3 / weightb=1 / open_gop=0 / weightp=2 / keyint=250 / keyint_min=23 / scenecut=40 / intra_refresh=0 / rc_lookahead=60 / rc=crf / mbtree=1 / crf=17.0 / qcomp=0.60 / qpmin=0 / qpmax=69 / qpstep=4 / ip_ratio=1.40 / aq=3:0.60
Language : English
Default : Yes
Forced : No
Color range : Limited
Matrix coefficients : BT.709

Audio
ID : 2
Format : FLAC
Format/Info : Free Lossless Audio Codec
Codec ID : A_FLAC
Duration : 1 h 23 min
Bit rate mode : Variable
Bit rate : 696 kb/s
Channel(s) : 2 channels
Channel layout : L R
Sampling rate : 48.0 kHz
Frame rate : 11.719 FPS (4096 SPF)
Bit depth : 16 bits
Compression mode : Lossless
Stream size : 414 MiB (7%)
Writing library : libFLAC 1.2.1 (UTC 2007-09-17)
Language : English
Default : Yes
Forced : No

Menu
00:00:00.000 : en:00:00:00.000
00:10:00.016 : en:00:10:00.016
00:20:00.032 : en:00:20:00.032
00:30:00.048 : en:00:30:00.048
00:40:00.064 : en:00:40:00.064
00:50:00.080 : en:00:50:00.080
01:00:00.097 : en:01:00:00.097
01:10:00.113 : en:01:10:00.113
01:20:00.129 : en:01:20:00.129





1 个附件 售价 大小 下载 时间

Category.III.The.Untold.Story.of.Hong.Kong.Exploitation.Cinema.2018.1080p.BluRay.x264-BiPOLAR.torrent 0 金币 30.79K 7376 次 8天前

#1楼
发帖时间:2021-06-11 11:32:37   |   回复数:1
kola13
武林盟主
感谢分享
8天前 #2楼
游客组