q3r3
武林盟主

[2020] [其他] [剧情] [BD-1080P] 親愛的房客 Dear.Tenant.2020.1080p.BluRay.x264-BiPOLAR 6.70GB

-->

帖子完整标题:親愛的房客 Dear.Tenant.2020.1080p.BluRay.x264-BiPOLAR 6.70GB



◎译  名 亲爱的房客/Dear Tenant
◎片  名 親愛的房客
◎年  代 2020
◎产  地 中国台湾
◎类  别 剧情 / 同性
◎语  言 汉语普通话
◎上映日期 2020-07-04(台北电影节) / 2020-10-23(中国台湾) / 2021-02-18(中国台湾网络)
◎豆瓣评分 7.5/10 from 10922 users
◎豆瓣链接 https://movie.douban.com/subject/35069520/
◎片  长 106分钟
◎导  演 郑有杰 Yu-Chieh Cheng
◎编  剧 郑有杰 Yu-Chieh Cheng
◎主  演 莫子仪 Tzu-yi Mo
      陈淑芳 Shu-Fang Chen
      白润音 Run-yin Bai
      吴朋奉 Pong Fong Wu
      谢琼煖 Chiung-Hsuan Hsieh
      姚淳耀 Jack Yao
      是元介 Jay Shin
      沈威年 Nelson
      王可元 Tommi Wang
      陈雪甄 Vera Chen
      胡广雯 Iris
      朱宥丞 Edward Chu

◎标  签 台湾 | 同性 | LGBT | 台湾电影 | 2020 | 剧情 | 莫子仪 | 电影

◎简  介

  林健一(莫子仪 饰)是住在顶楼的房客,但他不只照顾年迈患病的房东周秀玉(陈淑芳 饰),还收养了她9岁的孙子王悠宇(白润音 饰),这一切看似超出普通房客的行为动机,在周秀玉去世后受到质疑,很多人怀疑他是为了顺理成章的获得遗产,他百口莫辩,因为这些举动背后隐藏着一段不被承认的感情,也更是他思念一个人的方式,而那个人正是房东已经过世的儿子…

◎获奖情况

  第22届台北电影节 ?(2020)
  台北电影奖最佳男主角奖 莫子仪
  台北电影奖最佳女配角奖(提名) 陈淑芳
  台北电影奖最佳美术设计(提名) 陈柏任

Video
ID : 1
Format : AVC
Format/Info : Advanced Video Codec
Format profile : [email protected]
Format settings : CABAC / 5 Ref Frames
Format settings, CABAC : Yes
Format settings, Reference frames : 5 frames
Codec ID : V_MPEG4/ISO/AVC
Duration : 1 h 46 min
Bit rate : 5 092 kb/s
Width : 1 920 pixels
Height : 804 pixels
Display aspect ratio : 2.40:1
Frame rate mode : Constant
Frame rate : 24.000 FPS
Color space : YUV
Chroma subsampling : 4:2:0
Bit depth : 8 bits
Scan type : Progressive
Bits/(Pixel*Frame) : 0.137
Stream size : 3.79 GiB (56%)
Writing library : x264 core 163 r3059 b684ebe
Encoding settings : cabac=1 / ref=5 / deblock=1:-3:-3 / analyse=0x3:0x133 / me=umh / subme=10 / psy=1 / psy_rd=1.00:0.15 / mixed_ref=1 / me_range=24 / chroma_me=1 / trellis=2 / 8x8dct=1 / cqm=0 / deadzone=21,11 / fast_pskip=1 / chroma_qp_offset=-3 / threads=18 / lookahead_threads=3 / sliced_threads=0 / nr=0 / decimate=1 / interlaced=0 / bluray_compat=0 / constrained_intra=0 / bframes=8 / b_pyramid=2 / b_adapt=2 / b_bias=0 / direct=3 / weightb=1 / open_gop=0 / weightp=2 / keyint=250 / keyint_min=24 / scenecut=40 / intra_refresh=0 / rc_lookahead=60 / rc=crf / mbtree=1 / crf=16.0 / qcomp=0.60 / qpmin=0 / qpmax=69 / qpstep=4 / ip_ratio=1.40 / aq=3:0.60
Language : English
Default : Yes
Forced : No
Color range : Limited
Matrix coefficients : BT.709

Audio
ID : 2
Format : DTS XLL
Format/Info : Digital Theater Systems
Commercial name : DTS-HD Master Audio
Codec ID : A_DTS
Duration : 1 h 46 min
Bit rate mode : Variable
Bit rate : 3 890 kb/s
Channel(s) : 6 channels
Channel layout : C L R Ls Rs LFE
Sampling rate : 48.0 kHz
Frame rate : 93.750 FPS (512 SPF)
Bit depth : 24 bits
Compression mode : Lossless
Stream size : 2.89 GiB (43%)
Title : Mandarin
Language : Chinese
Default : Yes
Forced : No

Text #1
ID : 3
Format : UTF-8
Codec ID : S_TEXT/UTF8
Codec ID/Info : UTF-8 Plain Text
Duration : 1 h 41 min
Bit rate : 26 b/s
Count of elements : 928
Stream size : 19.6 KiB (0%)
Title : English
Language : English
Default : Yes
Forced : Yes

Text #2
ID : 4
Format : PGS
Muxing mode : zlib
Codec ID : S_HDMV/PGS
Codec ID/Info : Picture based subtitle format used on BDs/HD-DVDs
Duration : 1 h 41 min
Bit rate : 14.1 kb/s
Count of elements : 1553
Stream size : 10.3 MiB (0%)
Title : English
Language : English
Default : No
Forced : No

Text #3
ID : 5
Format : PGS
Muxing mode : zlib
Codec ID : S_HDMV/PGS
Codec ID/Info : Picture based subtitle format used on BDs/HD-DVDs
Duration : 1 h 41 min
Bit rate : 16.2 kb/s
Count of elements : 1557
Stream size : 11.8 MiB (0%)
Title : Chinese (traditional)
Language : Chinese
Default : No
Forced : No

Menu
00:00:00.000 : en:00:00:00.000
00:08:52.042 : en:00:08:52.042
00:15:50.042 : en:00:15:50.042
00:25:39.542 : en:00:25:39.542
00:33:36.917 : en:00:33:36.917
00:41:02.792 : en:00:41:02.792
00:50:32.542 : en:00:50:32.542
00:59:49.125 : en:00:59:49.125
01:09:08.292 : en:01:09:08.292
01:22:02.625 : en:01:22:02.625
01:28:48.958 : en:01:28:48.958
01:37:28.583 : en:01:37:28.583





1 个附件 售价 大小 下载 时间

Dear.Tenant.2020.1080p.BluRay.x264-BiPOLAR.torrent 0 金币 34.30K 1721 次 8天前

#1楼
发帖时间:2021-06-11 11:30:34   |   回复数:0
游客组