呆呆狐狸
隐世仙人♂

[2016] [美国] [剧情] [打包] [BT下载][伏从/欲奴/调教宝典/Submission 第一季][全06集打包][英语英字][MKV][1080P][片源]

-->


◎译  名 欲奴 / 伏从 / 调教宝典

◎片  名 Submission

◎年  代 2016

◎产  地 美国

◎类  别 剧情 / 爱情 / 悬疑

◎语  言 英语

◎上映日期 2016-05-12(美国)

◎IMDb评分 5.6/10 from 1127 users

◎IMDb链接 http://www.imdb.com/title/tt5625066

◎豆瓣评分 6.0/10 from 10565 users

◎豆瓣链接 https://movie.douban.com/subject/26785206/

◎BT之家整理 http://8btbtt.com/ 

◎集  数 6

◎片  长 24分钟

◎导  演 Jacky St. James

◎编  剧 Paul Fishbein / Jacky St. James

◎主  演 艾什琳恩·叶尼 Ashlynn Yennie

      贾斯汀·波尔蒂 Justin Berti

      斯金·迪亚蒙德 Skin Diamond

      维多利亚·莱文 Victoria Levine

      凯文·尼尔森 Kevin Nelson

      妮佳·海特洛娃 Nika Khitrova

      布伦特·哈维 Brent Harvey

      卡拉·库什 Karla Kush

      萨拉·卢 Sara Luvv



◎简  介  


  如果说《五十度灰》是满足普通女性对于“霸道总裁”的幻想,那么Showtime出品的六集迷你剧《伏从》(Submission)则是更加针对BDSM爱好者。该剧于(美国时间)5月12日11点首播,将挖掘BDSM的世界。剧情以年轻女性Ashley为主角,她在经历长期不愉快的性生活之后与男友分手,搬去与闺蜜同居。第一晚,无意翻阅了一本虐恋小说——《奴仆》(Slave),不由自主地加以自慰,获得了久违的快感,由此打开了新世界的大门,性欲夹杂着奴性开始滋长。此后还在聚会上结识了这位神秘作家,作家诺兰也有意将羞涩的阿什莉培养为自己的奴。当她这个新人进入这个充满掌掴、人形犬奴、捆绑等新奇花样的生活圈之后,才发现自己内心深处对于BDSM的喜爱被释放出来而且一发不可收拾,最后自己不知不觉地陷入了一场危险的三角关系。


Video
ID : 1
Format : AVC
Format/Info : Advanced Video Codec
Format profile : [email protected]
Format settings : CABAC / 4 Ref Frames
Format settings, CABAC : Yes
Format settings, ReFrames : 4 frames
Codec ID : V_MPEG4/ISO/AVC
Duration : 37 min 3 s
Bit rate mode : Variable
Bit rate : 9 289 kb/s
Maximum bit rate : 15.0 Mb/s
Width : 1 920 pixels
Height : 1 080 pixels
Display aspect ratio : 16:9
Frame rate mode : Constant
Frame rate : 23.976 (24000/1001) FPS
Color space : YUV
Chroma subsampling : 4:2:0
Bit depth : 8 bits
Scan type : Progressive
Bits/(Pixel*Frame) : 0.187
Stream size : 2.40 GiB (98%)
Writing library : x264 core 148 r2623 d5b2374
Encoding settings : cabac=1 / ref=4 / deblock=1:-1:-1 / analyse=0x3:0x133 / me=umh / subme=9 / psy=1 / psy_rd=1.00:0.15 / mixed_ref=1 / me_range=24 / chroma_me=1 / trellis=2 / 8x8dct=1 / cqm=0 / deadzone=21,11 / fast_pskip=1 / chroma_qp_offset=-3 / threads=34 / lookahead_threads=5 / sliced_threads=0 / nr=150 / decimate=1 / interlaced=0 / bluray_compat=0 / constrained_intra=0 / bframes=8 / b_pyramid=2 / b_adapt=2 / b_bias=0 / direct=3 / weightb=1 / open_gop=0 / weightp=2 / keyint=120 / keyint_min=61 / scenecut=0 / intra_refresh=0 / rc_lookahead=120 / rc=crf / mbtree=1 / crf=18.0 / qcomp=0.60 / qpmin=0 / qpmax=69 / qpstep=4 / vbv_maxrate=15000 / vbv_bufsize=31250 / crf_max=0.0 / nal_hrd=vbr / filler=0 / ip_ratio=1.40 / aq=3:1.00
Default : Yes
Forced : No
Color range : Limited
Color primaries : BT.709
Transfer characteristics : BT.709
Matrix coefficients : BT.709

Audio
ID : 2
Format : E-AC-3
Format/Info : Enhanced AC-3
Commercial name : Dolby Digital Plus
Codec ID : A_EAC3
Duration : 37 min 3 s
Bit rate mode : Constant
Bit rate : 224 kb/s
Channel(s) : 2 channels
Channel layout : L R
Sampling rate : 48.0 kHz
Frame rate : 31.250 FPS (1536 SPF)
Compression mode : Lossy
Stream size : 59.4 MiB (2%)
Title : English
Language : English
Service kind : Complete Main
Default : Yes
Forced : No

Text
ID : 3
Format : UTF-8
Codec ID : S_TEXT/UTF8
Codec ID/Info : UTF-8 Plain Text
Duration : 36 min 56 s
Bit rate : 51 b/s
Count of elements : 640
Stream size : 13.9 KiB (0%)
Title : English [Full]
Language : English
Default : Yes
Forced : No



1 个附件 售价 大小 下载 时间

Submission.S01.1080p.AMZN.WEBRip.DDP2.0.x264-RCVR[92btbtt.com].torrent 0 金币 59.25K 14448 次 2019-2-17

#1楼
发帖时间:2019-02-17 12:59:41   |   回复数:7
jokingcheung
一代宗师
谢谢分享
2019-2-17 #2楼
911degrees
隐世仙人♂
非常感谢,谢谢分享
2019-2-18 #3楼
Damien
小有名气
好片
2019-2-24 #4楼
Damien
小有名气
女主角的tits很美
2019-2-24 #5楼
chulps
一代宗师
~ 感谢分享 ~ 感谢 ~
2019-2-25 #6楼
guge
武林高手
身材真的不错~
2019-10-27 #7楼
蜜糖水加生姜
武林高手
感谢楼主分享!!!!
5天前 #8楼
游客组