呆呆狐狸
隐世仙人♂

[合 集] [美国] [剧情] [打包] [BT下载][应召女友 The Girlfriend Experience 第一至二季][全02季打包][英语英字][MKV][1080P][片源]

-->

◎译  名 应召女友 

◎片  名 The Girlfriend Experience

◎年  代 2016

◎产  地 美国

◎类  别 剧情

◎语  言 英语

◎上映日期 2016-04-10(美国)

◎IMDb评分 7.2/10 from 7369 users

◎IMDb链接 http://www.imdb.com/title/tt3846642

◎豆瓣评分 7.1/10 from 6118 users

◎豆瓣链接 https://movie.douban.com/subject/26290787/

◎BT之家整理 http://www.btbtt.us/

◎片  长 30分钟

◎导  演 艾米·西米茨 Amy Seimetz / Lodge Kerrigan

◎编  剧 艾米·西米茨 Amy Seimetz / Lodge Kerrigan

◎主  演 丽莉·克亚芙 Riley Keough

      保罗·斯帕克斯 Paul Sparks

      玛丽·莱恩·莱杰斯库 Mary Lynn Rajskub

      亚历桑德拉·卡斯蒂略 Alexandra Castillo

      肖恩·本森 Shaun Benson

      德鲁·尼尔森 Drew Nelson

      凯特·林恩·希尔 Kate Lyn Sheil

      詹姆斯·吉尔伯特 James Gilbert

      Kate Hewlett

      Neil Whitely

      Ann Pirvu




◎简  介  


  该剧根据2009年同名电影改编,原版电影描述的是高级妓女为客户提供私人专享服务的故事——这些服务不限于性爱,更带感情。


◎获奖情况  


  第74届金球奖(2017)

  电视类 迷你剧/电视电影最佳女主角(提名) 丽莉·克亚芙


  第26届哥谭独立电影奖(2016)

  最佳突破剧集(提名) 洛奇·科里根 / 艾米·西米茨



Video
ID : 1
Format : HEVC
Format/Info : High Efficiency Video Coding
Format profile : [email protected]@Main
Codec ID : V_MPEGH/ISO/HEVC
Duration : 30 min 21 s
Bit rate : 6 003 kb/s
Width : 1 920 pixels
Height : 1 080 pixels
Display aspect ratio : 16:9
Frame rate mode : Constant
Frame rate : 23.976 (24000/1001) FPS
Standard : NTSC
Color space : YUV
Chroma subsampling : 4:2:0
Bit depth : 8 bits
Bits/(Pixel*Frame) : 0.121
Stream size : 1.27 GiB (90%)
Writing library : x265 0.0:[Linux][GCC 4.8.2][64 bit] 8bit+10bit+12bit
Encoding settings : cpuid=1173503 / frame-threads=1 / wpp / no-pmode / no-pme / psnr / ssim / log-level=2 / csvfn=/apollo/env/YoshiEncodingWorkflowActivitiesLinuxEncoding/var/tmp/1346904757/469e7ebe-1250-4202-b081-7c6097e274d4/ba808913-9307-4585-afb3-b1ad3d75d8ee_video_1080p_9000kbps.csv / csv-log-level=2 / input-csp=1 / input-res=1920x1080 / interlace=0 / total-frames=0 / level-idc=40 / high-tier=1 / uhd-bd=0 / ref=5 / no-allow-non-conformance / no-repeat-headers / annexb / no-aud / no-hrd / info / hash=0 / no-temporal-layers / no-open-gop / min-keyint=61 / keyint=120 / bframes=5 / b-adapt=2 / b-pyramid / bframe-bias=0 / rc-lookahead=120 / lookahead-slices=0 / scenecut=0 / no-intra-refresh / ctu=64 / min-cu-size=8 / rect / no-amp / max-tu-size=32 / tu-inter-depth=1 / tu-intra-depth=1 / limit-tu=0 / rdoq-level=2 / dynamic-rd=0.00 / no-ssim-rd / signhide / no-tskip / nr-intra=0 / nr-inter=200 / no-constrained-intra / strong-intra-smoothing / max-merge=3 / limit-refs=3 / limit-modes / me=3 / subme=3 / merange=57 / temporal-mvp / weightp / no-weightb / no-analyze-src-pics / deblock=0:0 / sao / no-sao-non-deblock / rd=4 / no-early-skip / rskip / no-fast-intra / no-tskip-fast / no-cu-lossless / no-b-intra / rdpenalty=0 / psy-rd=2.00 / psy-rdoq=1.00 / no-rd-refine / analysis-reuse-mode=0 / no-lossless / cbqpoffs=0 / crqpoffs=0 / rc=crf / crf=21.5 / qcomp=0.60 / qpstep=4 / stats-write=0 / stats-read=0 / vbv-maxrate=9000 / vbv-bufsize=12000 / vbv-init=0.9 / crf-max=0.0 / crf-min=0.0 / ipratio=1.40 / pbratio=1.30 / aq-mode=3 / aq-strength=2.00 / cutree / zone-count=0 / no-strict-cbr / qg-size=32 / no-rc-grain / qpmax=69 / qpmin=0 / no-const-vbv / sar=1 / overscan=0 / videoformat=2 / range=0 / colorprim=1 / transfer=1 / colormatrix=1 / chromaloc=0 / display-window=0 / max-cll=0,0 / min-luma=0 / max-luma=255 / log2-max-poc-lsb=8 / vui-timing-info / vui-hrd-info / slices=1 / opt-qp-pps / opt-ref-list-length-pps / no-multi-pass-opt-rps / scenecut-bias=0.05 / no-opt-cu-delta-qp / no-aq-motion / no-hdr / no-hdr-opt / no-dhdr10-opt / analysis-reuse-level=5 / scale-factor=0 / refine-intra=0 / refine-inter=0 / refine-mv=0 / no-limit-sao / ctu-info=0
Default : Yes
Forced : No
Color range : Limited
Color primaries : BT.709
Transfer characteristics : BT.709
Matrix coefficients : BT.709

Audio
ID : 2
Format : E-AC-3
Format/Info : Enhanced AC-3
Commercial name : Dolby Digital Plus
Codec ID : A_EAC3
Duration : 30 min 21 s
Bit rate mode : Constant
Bit rate : 640 kb/s
Channel(s) : 6 channels
Channel layout : L R C LFE Ls Rs
Sampling rate : 48.0 kHz
Frame rate : 31.250 FPS (1536 SPF)
Compression mode : Lossy
Stream size : 139 MiB (10%)
Language : English
Service kind : Complete Main
Default : Yes
Forced : No

Text
ID : 3
Format : UTF-8
Codec ID : S_TEXT/UTF8
Codec ID/Info : UTF-8 Plain Text
Duration : 26 min 11 s
Bit rate : 34 b/s
Count of elements : 259
Stream size : 6.61 KiB (0%)
Language : English
Default : No
Forced : No




WEBRip.DDP5.1.x265版打包


2 个附件 售价 大小 下载 时间

The.Girlfriend.Experience.S01.1080p.AMZN.WEBRip.DDP5.1.x265-SiGMA[btbtt.me].torrent 0 金币 79.87K 10011 次 2019-1-3

The.Girlfriend.Experience.S02.1080p.AMZN.WEBRip.DDP5.1.x265-SiGMA[btbtt.me].torrent 0 金币 70.87K 10042 次 2019-1-3

#1楼
发帖时间:2019-01-03 22:37:55   |   回复数:5
kola13
武林盟主
感谢分享
2019-1-4 #2楼
金枪西门庆
武林盟主
感谢楼主分享,支持了。
2019-2-19 #3楼
Mysticc
小有名气
感谢分享
10月前 #4楼
蜜糖水加生姜
武林高手
感谢楼主分享!!!!
5天前 #5楼
金枪西门庆
武林盟主
感谢楼主分享,支持了。
4天前 #6楼
游客组