squallzhao
武林盟主

[2013] [其他] [惊悚] [BD-1080P] 手机有鬼 App 2013 1080p BluRay x264-WiKi 7.31GB

-->

帖子完整标题:手机有鬼 App 2013 1080p BluRay x264-WiKi 7.31GB



◎译  名 手机有鬼/APP (港)
◎片  名 App
◎年  代 2013
◎产  地 荷兰
◎类  别 惊悚
◎语  言 荷兰语
◎上映日期 2013-04-04(荷兰)
◎IMDb评分 5.4/10 from 2430 users
◎IMDb链接 https://www.imdb.com/title/tt2536436/
◎豆瓣评分 4.8/10 from 341 users
◎豆瓣链接 https://movie.douban.com/subject/22521383/
◎片  长 78分钟
◎导  演 Bobby Boermans
◎编  剧 Robert Arthur Jansen
◎主  演 汉娜·霍克斯特拉 Hannah Hoekstra
      Isis Cabolet
      罗伯特·德·霍格 Robert de Hoog
      Alex Hendrickx
      马菲积斯·范德桑德·巴库曾 Matthijs van de Sande Bakhuyzen
      Patrick Martens
      Gigi Ravelli
      Harry van Rijthoven
      丽莎·斯普斯 Liza Sips
      扬容·斯皮森伯格 Jeroen Spitzenberger
      马克·范·伊文 Mark van Eeuwen

◎标  签 惊悚 | 荷兰 | 悬疑 | 2013 | 荷兰电影 | 欧洲 | 电影 | 青春

◎简  介

  安娜在床上醒来,脑袋因为前一夜的狂欢有些昏沉疼痛。她打开手机,发现新增一款名为“伊丽丝”(IRIS) 的神秘互动APP;它将好姊妹出轨的证据偷拍下来,还将不雅照、私密影片和讯息散布至脸书,监控她的生活,周遭朋友纷纷卷入,陷入恐慌。
  
  安娜用尽一切办法,欲将伊丽丝移除,却引来致命杀机。不甘居于劣势的她,决定正面迎击…。

Format : Matroska
Format version : Version 2
File size : 7.21 GiB
Duration : 1h 18mn
Overall bit rate : 13.1 Mbps
Encoded date : UTC 2014-06-28 14:21:02
Writing application : mkvmerge v5.8.0 (\'No Sleep / Pillow\') built on Sep 2 2012 15:37:04
Writing library : libebml v1.2.3 + libmatroska v1.3.0

Video
ID : 1
Format : AVC
Format/Info : Advanced Video Codec
Format profile : [email protected]
Format settings, CABAC : Yes
Format settings, ReFrames : 5 frames
Codec ID : V_MPEG4/ISO/AVC
Duration : 1h 18mn
Bit rate : 12.5 Mbps
Width : 1 920 pixels
Height : 804 pixels
Display aspect ratio : 2.40:1
Frame rate mode : Constant
Frame rate : 23.976 fps
Color space : YUV
Chroma subsampling : 4:2:0
Bit depth : 8 bits
Scan type : Progressive
Bits/(Pixel*Frame) : 0.338
Stream size : 6.72 GiB (93%)
Writing library : x264 core 136 r2348+704+51 d1baef6 tMod [[email protected] X86_64]
Encoding settings : cabac=1 / ref=5 / deblock=1:-3:-3 / analyse=0x3:0x133 / me=umh / subme=11 / psy=1 / fade_compensate=0.00 / psy_rd=1.05:0.15 / mixed_ref=1 / me_range=64 / chroma_me=1 / trellis=2 / 8x8dct=1 / cqm=0 / deadzone=21,11 / fast_pskip=0 / chroma_qp_offset=-3 / threads=12 / lookahead_threads=2 / sliced_threads=0 / nr=0 / decimate=0 / interlaced=0 / bluray_compat=0 / constrained_intra=0 / fgo=0 / bframes=8 / b_pyramid=2 / b_adapt=2 / b_bias=0 / direct=3 / weightb=1 / open_gop=0 / weightp=2 / keyint=250 / keyint_min=23 / scenecut=40 / intra_refresh=0 / rc_lookahead=120 / rc=2pass / mbtree=1 / bitrate=12500 / ratetol=1.0 / qcomp=0.75 / qpmin=0:0:0 / qpmax=69:69:69 / qpstep=4 / cplxblur=20.0 / qblur=0.5 / vbv_maxrate=50000 / vbv_bufsize=50000 / nal_hrd=none / ip_ratio=1.40 / aq=1:0.85 / aq-sensitivity=10.00 / aq-factor=1.00:1.00:1.00 / aq2=0 / aq3=0
Language : dum
Default : Yes
Forced : No
Matrix coefficients : BT.709

Audio
ID : 2
Format : AC-3
Format/Info : Audio Coding 3
Mode extension : CM (complete main)
Format settings, Endianness : Big
Codec ID : A_AC3
Duration : 1h 18mn
Bit rate mode : Constant
Bit rate : 640 Kbps
Channel(s) : 6 channels
Channel positions : Front: L C R, Side: L R, LFE
Sampling rate : 48.0 KHz
Bit depth : 16 bits
Compression mode : Lossy
Stream size : 360 MiB (5%)
Language : dum
Default : Yes
Forced : No

Text #1
ID : 3
Format : UTF-8
Codec ID : S_TEXT/UTF8
Codec ID/Info : UTF-8 Plain Text
Title : CHS
Language : Chinese
Default : No
Forced : No

Text #2
ID : 4
Format : UTF-8
Codec ID : S_TEXT/UTF8
Codec ID/Info : UTF-8 Plain Text
Title : CHT
Language : Chinese
Default : No
Forced : No

Text #3
ID : 5
Format : UTF-8
Codec ID : S_TEXT/UTF8
Codec ID/Info : UTF-8 Plain Text
Language : English
Default : No
Forced : No

Menu
00:00:00.000 : en:00:00:00.000
00:04:28.185 : en:00:04:28.185
00:08:51.072 : en:00:08:51.072
00:11:58.134 : en:00:11:58.134
00:17:32.260 : en:00:17:32.260
00:20:45.453 : en:00:20:45.453
00:24:36.809 : en:00:24:36.809
00:28:55.067 : en:00:28:55.067
00:33:36.473 : en:00:33:36.473
00:35:02.726 : en:00:35:02.726
00:41:17.141 : en:00:41:17.141
00:43:39.826 : en:00:43:39.826
00:47:03.863 : en:00:47:03.863
00:52:25.100 : en:00:52:25.100
00:55:50.889 : en:00:55:50.889
01:02:17.692 : en:01:02:17.692
01:08:39.115 : en:01:08:39.115
01:16:13.152 : en:01:16:13.152





1 个附件 售价 大小 下载 时间

App%25202013%25201080p%2520BluRay%2520x264-WiKi.zip 0 金币 74.67K 182 次 7天前

#1楼
发帖时间:2020-10-18 11:04:49   |   回复数:0
游客组