squallzhao
武林盟主

[2013] [日本] [剧情] [BD-1080P] SPEC:结 前篇 SPEC.Close.Incarnation.2013.JAPANESE.1080p.BluRay.x264.DTS-WiKi 7.34GB

-->

帖子完整标题:SPEC:结 前篇 SPEC.Close.Incarnation.2013.JAPANESE.1080p.BluRay.x264.DTS-WiKi 7.34GB



◎译  名 SPEC:结 前篇/Gekijouban SPEC: Kur?zu - Zen no hen/SPEC: Close - Incarnation/SPEC完结篇:渐之篇
◎片  名 劇場版 SPEC~結~漸ノ篇
◎年  代 2013
◎产  地 日本
◎类  别 剧情
◎语  言 日语
◎上映日期 2013-11-01(日本)
◎IMDb评分 5.1/10 from 159 users
◎IMDb链接 https://www.imdb.com/title/tt2641866/
◎豆瓣评分 6.7/10 from 11933 users
◎豆瓣链接 https://movie.douban.com/subject/19975104/
◎片  长 93分钟
◎导  演 堤幸彦 Yukihiko Tsutsumi
◎编  剧 西荻弓绘 Yumie Nishiogi
◎主  演 户田惠梨香 Erika Toda
      加濑亮 Ryo Kase
      龙雷太 Raita Ry?
      有村架纯 Kasumi Arimura
      大岛优子 Yuko Oshima
      向井理 Osamu Mukai
      浅野优子 Y?ko Asano
      神木隆之介 Ry?nosuke Kamiki
      北村一辉 Kazuki Kitamura
      栗山千明 Chiaki Kuriyama
      香椎由宇 Yuu Kashii
      远藤宪一 Ken'ichi End?
      桥本真帆 Maho Hashimoto
      城田优 Yuu Shirota
      三浦贵大 Takahiro Miura
      渡边一计 Ikkei Watanabe
      李奈映 Na-yeong Lee

◎标  签 日本 | SPEC | 2013 | 日剧SP | 看过的电视剧 | 科幻 | 悬疑 | 剧场版

◎简  介

  经过与一十一(神木隆之介 饰)的恶战,濑文焚流(加濑亮 饰)身受重伤,命几不保。在此期间,青池里子(栗山千明 饰)随女儿小润(森山树 饰)悄然离开医院;而各国政要的一次关于简单计划的秘密会议上,自称卑弥呼的日本代表抹杀所有人,他代表SPEC持有者正式向普通人类宣战。世态险恶的当下,濑文急急出院,和当麻纱绫(户田惠梨香 饰)一同调查青池母女的行踪。而野野村组长(龙雷太 饰)则独自行动,查找简单计划病毒疫苗的下落。新的SPEC持有者交替登场,残酷的杀戮却从未停止。关于前人类的秘密昭然若揭,惨烈浩大的人种战争即将拉开序幕……
  
  本片为SPEC系列完结篇的前篇。

Format : Matroska
Format version : Version 2
File size : 7.24 GiB
Duration : 1h 34mn
Overall bit rate : 11.0 Mbps
Encoded date : UTC 2014-06-22 17:29:09
Writing application : mkvmerge v5.8.0 (\'No Sleep / Pillow\') built on Sep 2 2012 15:37:04
Writing library : libebml v1.2.3 + libmatroska v1.3.0
Attachment : Yes

Video
ID : 1
Format : AVC
Format/Info : Advanced Video Codec
Format profile : [email protected]
Format settings, CABAC : Yes
Format settings, ReFrames : 5 frames
Codec ID : V_MPEG4/ISO/AVC
Duration : 1h 34mn
Bit rate : 9 500 Kbps
Width : 1 920 pixels
Height : 800 pixels
Display aspect ratio : 2.40:1
Frame rate mode : Constant
Frame rate : 23.976 fps
Color space : YUV
Chroma subsampling : 4:2:0
Bit depth : 8 bits
Scan type : Progressive
Bits/(Pixel*Frame) : 0.258
Stream size : 6.11 GiB (84%)
Writing library : x264 core 136 r2348+704+51 d1baef6 tMod [[email protected] X86_64]
Encoding settings : cabac=1 / ref=5 / deblock=1:-3:-3 / analyse=0x3:0x133 / me=umh / subme=11 / psy=1 / fade_compensate=0.00 / psy_rd=1.05:0.00 / mixed_ref=1 / me_range=64 / chroma_me=1 / trellis=2 / 8x8dct=1 / cqm=0 / deadzone=21,11 / fast_pskip=0 / chroma_qp_offset=-2 / threads=12 / lookahead_threads=2 / sliced_threads=0 / nr=0 / decimate=0 / interlaced=0 / bluray_compat=0 / constrained_intra=0 / fgo=0 / bframes=8 / b_pyramid=2 / b_adapt=2 / b_bias=0 / direct=3 / weightb=1 / open_gop=0 / weightp=2 / keyint=250 / keyint_min=23 / scenecut=40 / intra_refresh=0 / rc_lookahead=120 / rc=2pass / mbtree=0 / bitrate=9500 / ratetol=1.0 / qcomp=0.75 / qpmin=0:0:0 / qpmax=69:69:69 / qpstep=4 / cplxblur=20.0 / qblur=0.5 / vbv_maxrate=50000 / vbv_bufsize=50000 / nal_hrd=none / ip_ratio=1.40 / pb_ratio=1.30 / aq=1:0.95 / aq-sensitivity=10.00 / aq-factor=1.00:1.00:1.00 / aq2=0 / aq3=0
Language : Japanese
Default : Yes
Forced : No
Matrix coefficients : BT.709

Audio
ID : 2
Format : DTS
Format/Info : Digital Theater Systems
Mode : 16
Format settings, Endianness : Big
Codec ID : A_DTS
Duration : 1h 34mn
Bit rate mode : Constant
Bit rate : 1 509 Kbps
Channel(s) : 6 channels
Channel positions : Front: L C R, Side: L R, LFE
Sampling rate : 48.0 KHz
Bit depth : 16 bits
Compression mode : Lossy
Stream size : 1 016 MiB (14%)
Language : Japanese
Default : Yes
Forced : No

Text #1
ID : 3
Format : ASS
Codec ID : S_TEXT/ASS
Codec ID/Info : Advanced Sub Station Alpha
Compression mode : Lossless
Title : CHS
Language : Chinese
Default : No
Forced : No

Text #2
ID : 4
Format : ASS
Codec ID : S_TEXT/ASS
Codec ID/Info : Advanced Sub Station Alpha
Compression mode : Lossless
Title : CHT
Language : Chinese
Default : No
Forced : No

Menu
00:00:00.000 : en:00:00:00.000
00:04:08.457 : en:00:04:08.457
00:07:02.047 : en:00:07:02.047
00:09:56.429 : en:00:09:56.429
00:15:57.540 : en:00:15:57.540
00:20:28.811 : en:00:20:28.811
00:23:26.363 : en:00:23:26.363
00:27:25.519 : en:00:27:25.519
00:29:41.530 : en:00:29:41.530
00:35:08.523 : en:00:35:08.523
00:38:31.893 : en:00:38:31.893
00:45:06.412 : en:00:45:06.412
00:50:06.420 : en:00:50:06.420
00:52:36.779 : en:00:52:36.779
01:00:08.647 : en:01:00:08.647
01:02:42.342 : en:01:02:42.342
01:08:17.218 : en:01:08:17.218
01:17:15.172 : en:01:17:15.172
01:24:07.542 : en:01:24:07.542
01:33:08.708 : en:01:33:08.708





1 个附件 售价 大小 下载 时间

SPEC.Close.Incarnation.2013.JAPANESE.1080p.BluRay.x264.DTS-WiKi.zip 0 金币 75.05K 280 次 7天前

#1楼
发帖时间:2020-10-18 10:59:15   |   回复数:1
kola13
武林盟主
感谢分享
6天前 #2楼
游客组