travismk
一代宗师

[更 早] [其他] [动作] [BD-1080P] 鲨鱼 Shark.1969.1080p.BluRay.x264-HANDJOB 7.34GB

-->

帖子完整标题:鲨鱼 Shark.1969.1080p.BluRay.x264-HANDJOB 7.34GB



◎译  名 鲨鱼
◎片  名 Shark!
◎年  代 1969
◎产  地 美国,墨西哥
◎类  别 动作 / 惊悚 / 犯罪 / 冒险
◎语  言 英语
◎上映日期 1969-10-08
◎IMDb评分 4.6/10 from 840 users
◎IMDb链接 https://www.imdb.com/title/tt0066365/
◎豆瓣评分 /10 from 0 users
◎豆瓣链接 https://movie.douban.com/subject/4818084/
◎片  长 92 分钟
◎导  演 塞缪尔·富勒 Samuel Fuller
◎编  剧 塞缪尔·富勒 Samuel Fuller / 肯·休斯 Ken Hughes / 维克托·坎宁 Victor Canning
◎主  演 伯特·雷诺兹 Burt Reynolds
      阿瑟·肯尼迪 Arthur Kennedy
      西尔维娅·皮纳尔 Silvia Pinal
      弗朗西斯科·雷格拉 Francisco Reiguera
      恩里克·卢塞罗 Enrique Lucero
      何塞·查韦斯 José Chávez
      巴瑞·萨里万 Barry Sullivan

◎标  签 塞缪尔·富勒 | 美国 | 1960s | 犯罪 | 冒险 | Samuel_Fuller | 1969 | 黑色

◎简  介

  暂无相关剧情介绍

Video
ID : 1
Format : AVC
Format/Info : Advanced Video Codec
Format profile : [email protected]
Format settings : CABAC / 4 Ref Frames
Format settings, CABAC : Yes
Format settings, Reference frames : 4 frames
Codec ID : V_MPEG4/ISO/AVC
Duration : 1 h 33 min
Bit rate : 11.1 Mb/s
Width : 1 912 pixels
Height : 1 078 pixels
Display aspect ratio : 16:9
Frame rate mode : Constant
Frame rate : 23.976 (24000/1001/189150) FPS
Color space : YUV
Chroma subsampling : 4:2:0
Bit depth : 8 bits
Scan type : Progressive
Bits/(Pixel*Frame) : 0.224
Stream size : 7.20 GiB (98%)
Writing library : x264 core 148
Encoding settings : cabac=1 / ref=4 / deblock=1:-3:-3 / analyse=0x3:0x133 / me=umh / subme=10 / psy=1 / psy_rd=1.00:0.00 / mixed_ref=1 / me_range=32 / chroma_me=1 / trellis=2 / 8x8dct=1 / cqm=0 / deadzone=21,11 / fast_pskip=0 / chroma_qp_offset=-2 / threads=12 / lookahead_threads=3 / sliced_threads=0 / nr=0 / decimate=0 / interlaced=0 / bluray_compat=0 / constrained_intra=0 / bframes=16 / b_pyramid=2 / b_adapt=2 / b_bias=0 / direct=3 / weightb=1 / open_gop=0 / weightp=2 / keyint=240 / keyint_min=24 / scenecut=40 / intra_refresh=0 / rc_lookahead=60 / rc=crf / mbtree=0 / crf=22.2 / qcomp=0.60 / qpmin=0 / qpmax=69 / qpstep=4 / vbv_maxrate=62500 / vbv_bufsize=78125 / crf_max=0.0 / nal_hrd=none / filler=0 / ip_ratio=1.40 / pb_ratio=1.30 / aq=2:1.00
Default : Yes
Forced : No
Color range : Limited
Color primaries : BT.709
Transfer characteristics : BT.709
Matrix coefficients : BT.709

Audio
ID : 2
Format : FLAC
Format/Info : Free Lossless Audio Codec
Codec ID : A_FLAC
Duration : 1 h 33 min
Bit rate mode : Variable
Bit rate : 219 kb/s
Channel(s) : 1 channel
Sampling rate : 48.0 kHz
Frame rate : 11.719 FPS (4096 SPF)
Bit depth : 16 bits
Compression mode : Lossless
Stream size : 146 MiB (2%)
Writing library : libFLAC 1.2.1 (UTC 2007-09-17)
Language : English
Default : Yes
Forced : No

Menu
00:00:00.000 : :Chapter 01
00:11:19.429 : :Chapter 02
00:19:39.261 : :Chapter 03
00:31:59.292 : :Chapter 04
00:47:28.596 : :Chapter 05
00:57:18.393 : :Chapter 06
01:06:39.120 : :Chapter 07
01:16:17.323 : :Chapter 08





1 个附件 售价 大小 下载 时间

Shark.1969.1080p.BluRay.x264-HANDJOB.zip 0 金币 37.33K 112 次 3天前

#1楼
发帖时间:2020-10-17 20:47:18   |   回复数:0
游客组