q3r3
一派掌门

[更 早] [欧美] [剧情] [BD-1080P] 魔女嘉莉/凶灵 Carrie.1976.REMASTERED.1080p.BluRay.X264-AMIABLE 9.84GB

-->

帖子完整标题:魔女嘉莉/凶灵 Carrie.1976.REMASTERED.1080p.BluRay.X264-AMIABLE 9.84GB



◎译  名 魔女嘉莉/凶灵(港)/卡丽/魔女佳丽
◎片  名 Carrie
◎年  代 1976
◎产  地 美国
◎类  别 剧情 / 恐怖
◎语  言 英语
◎上映日期 1976-11-03
◎IMDb评分 7.4/10 from 164324 users
◎IMDb链接 https://www.imdb.com/title/tt0074285/
◎豆瓣评分 7.5/10 from 25012 users
◎豆瓣链接 https://movie.douban.com/subject/1292664/
◎片  长 98 分钟
◎导  演 布莱恩·德·帕尔玛 Brian De Palma
◎编  剧 劳伦斯·D·科昂 Lawrence D. Cohen / 斯蒂芬·金 Stephen King
◎主  演 茜茜·斯派塞克 Sissy Spacek
      派珀·劳瑞 Piper Laurie
      艾米·欧文 Amy Irving
      威廉姆·卡特 William Katt
      贝蒂·巴克利 Betty Buckley
      约翰·特拉沃尔塔 John Travolta
      南茜·艾伦 Nancy Allen
      P·J·索尔丝 P.J. Soles
      Mike Towers

◎标  签 惊悚 | 美国 | 恐怖 | 美国电影 | StephenKing | 青春 | 1976 | BrianDePalma

◎简  介

  外表平凡性格内向的嘉利·怀特(茜茜·斯派塞克 Sissy Spacek 饰)一直都是班上默默无闻的丑小鸭,她古怪的性格和沉迷于宗教崇拜的母亲更为她遭受同学的欺凌创造了得天独厚的条件。尽管现实残酷,但在校园里,依然有人默默的关心着嘉利,这使得嘉利树立了信心想要融入校园生活中去 。三年一度的毕业晚会要开始了,尽管母亲玛格丽特·怀特(派珀·劳瑞 Piper Laurie 饰)极力反对,但嘉利下定决心要在舞会上夺得“舞会王后”的头筹一改往日抑郁的形象。可是,一些人总是不愿意放过她,舞会当晚,头戴王冠的嘉利在众目睽睽之下全身淋满了猪血,愤怒激活了她体内的女巫血统,她要使用她的能力,将整个会场变成人间地狱。
  
  本片改编自史蒂芬·金(Stephen King)的同名小说,不仅成为了青春校园恐怖小说的鼻祖,也为日后层出不穷的同类题材电影开出了一条道路。

◎获奖情况

  第49届奥斯卡金像奖 ?(1977)
  最佳女主角(提名) 茜茜·斯派塞克
  最佳女配角(提名) 派珀·劳瑞

Video
ID : 1
Format : AVC
Format/Info : Advanced Video Codec
Format profile : [email protected]
Format settings : CABAC / 4 Ref Frames
Format settings, CABAC : Yes
Format settings, Reference frames : 4 frames
Codec ID : V_MPEG4/ISO/AVC
Duration : 1 h 38 min
Bit rate : 12.8 Mb/s
Width : 1 920 pixels
Height : 1 040 pixels
Display aspect ratio : 1.85:1
Frame rate mode : Constant
Frame rate : 23.976 (24000/1001/189150) FPS
Color space : YUV
Chroma subsampling : 4:2:0
Bit depth : 8 bits
Scan type : Progressive
Bits/(Pixel*Frame) : 0.268
Stream size : 8.61 GiB (87%)
Writing library : x264 core 148 r2705 3f5ed56
Encoding settings : cabac=1 / ref=4 / deblock=1:-3:-3 / analyse=0x3:0x133 / me=umh / subme=10 / psy=1 / psy_rd=1.15:0.00 / mixed_ref=1 / me_range=32 / chroma_me=1 / trellis=2 / 8x8dct=1 / cqm=0 / deadzone=21,11 / fast_pskip=1 / chroma_qp_offset=-2 / threads=24 / lookahead_threads=4 / sliced_threads=0 / nr=0 / decimate=1 / interlaced=0 / bluray_compat=0 / constrained_intra=0 / bframes=8 / b_pyramid=2 / b_adapt=2 / b_bias=0 / direct=3 / weightb=1 / open_gop=0 / weightp=2 / keyint=240 / keyint_min=24 / scenecut=40 / intra_refresh=0 / rc_lookahead=60 / rc=2pass / mbtree=1 / bitrate=12838 / ratetol=1.0 / qcomp=0.60 / qpmin=0 / qpmax=69 / qpstep=4 / cplxblur=20.0 / qblur=0.5 / ip_ratio=1.40 / aq=3:0.75
Default : Yes
Forced : No
Statistics Tags Issue : no_variable_data 1970-01-01 00:00:00 / no_variable_data 2010-02-22 21:41:29
FromStats_BitRate : 12836559
FromStats_Duration : 01:38:09.884000000
FromStats_FrameCount : 141216
FromStats_StreamSize : 9450730615

Audio
ID : 2
Format : DTS
Format/Info : Digital Theater Systems
Codec ID : A_DTS
Duration : 1 h 38 min
Bit rate mode : Constant
Bit rate : 1 509 kb/s
Channel(s) : 6 channels
Channel layout : C L R Ls Rs LFE
Sampling rate : 48.0 kHz
Frame rate : 93.750 FPS (512 SPF)
Bit depth : 24 bits
Compression mode : Lossy
Stream size : 1.03 GiB (11%)
Language : English
Default : Yes
Forced : No
Statistics Tags Issue : no_variable_data 1970-01-01 00:00:00 / no_variable_data 2010-02-22 21:41:29
FromStats_BitRate : 1508999
FromStats_Duration : 01:38:09.910000000
FromStats_FrameCount : 552179
FromStats_StreamSize : 1110984148

Text #1
ID : 3
Format : UTF-8
Codec ID : S_TEXT/UTF8
Codec ID/Info : UTF-8 Plain Text
Language : English
Default : No
Forced : No
Statistics Tags Issue : no_variable_data 1970-01-01 00:00:00 / no_variable_data 2010-02-22 21:41:29
FromStats_BitRate : 46
FromStats_Duration : 01:36:09.388000000
FromStats_FrameCount : 1088
FromStats_StreamSize : 33408

Text #2
ID : 4
Format : UTF-8
Codec ID : S_TEXT/UTF8
Codec ID/Info : UTF-8 Plain Text
Title : SDH
Language : English
Default : No
Forced : No
Statistics Tags Issue : no_variable_data 1970-01-01 00:00:00 / no_variable_data 2010-02-22 21:41:29
FromStats_BitRate : 53
FromStats_Duration : 01:38:04.086000000
FromStats_FrameCount : 1360
FromStats_StreamSize : 39118

Menu
00:00:00.000 : en:00:00:00.000
00:06:43.862 : en:00:06:43.862
00:12:26.329 : en:00:12:26.329
00:19:06.479 : en:00:19:06.479
00:25:33.741 : en:00:25:33.741
00:36:55.755 : en:00:36:55.755
00:45:01.741 : en:00:45:01.741
00:55:31.161 : en:00:55:31.161
01:05:29.008 : en:01:05:29.008
01:10:12.333 : en:01:10:12.333
01:17:14.129 : en:01:17:14.129
01:28:36.853 : en:01:28:36.853





1 个附件 售价 大小 下载 时间

Carrie.1976.REMASTERED.1080p.BluRay.X264-AMIABLE.zip 0 金币 99.85K 504 次 2天前

#1楼
发帖时间:2020-09-16 22:53:14   |   回复数:1
liyouchai
隐世仙人♂
谢谢楼主分享资源
2天前 #2楼
游客组