q3r3
一派掌门

[更 早] [欧美] [喜剧] [BD-1080P] 魔掌/闲旷之手 Idle.Hands.1999.1080p.BluRay.X264-AMIABLE 8.74GB

-->

帖子完整标题:魔掌/闲旷之手 Idle.Hands.1999.1080p.BluRay.X264-AMIABLE 8.74GB



◎译  名 魔掌/闲旷之手
◎片  名 Idle Hands
◎年  代 1999
◎产  地 美国
◎类  别 喜剧 / 惊悚 / 恐怖
◎语  言 英语
◎上映日期 1999-04-30
◎IMDb评分 6.2/10 from 39038 users
◎IMDb链接 https://www.imdb.com/title/tt0138510/
◎豆瓣评分 6.5/10 from 466 users
◎豆瓣链接 https://movie.douban.com/subject/1292639/
◎片  长 90 分钟
◎导  演 罗德曼·弗伦德 Rodman Flender
◎主  演 薇薇卡·福克斯 Vivica A. Fox
      杰西卡·阿尔芭 Jessica Alba
      埃尔登·汉森 Elden Henson
      戴文·萨瓦 Devon Sawa
      赛斯·格林 Seth Green

◎标  签 恐怖 | 喜剧 | 美国 | 1999 | 恐怖电影 | 我看过的恐怖电影 | Jessica_Alba | 我看过的电影

◎简  介

  17岁的小青年安东(Devon Sawa 饰)懒惰非常,每天最大的爱好就是吃吃喝喝看电视,或者打打漂亮女邻居莫莉(Jessica Alba 杰茜卡?阿尔巴 饰)的歪主意。
  
  某个万圣节的早上,他一觉醒来发现父母竟变成了没有脑袋的万圣节玩偶!不久,好友米克(Seth Green 饰)和帕布(Elden Henson 饰)更死在他的手上。安东意识到,自己遇见了真正的恶魔,并且恶魔附身自己的手中,为所欲为,无恶不作。安东发现魔手的下一个目标正是莫莉,为了拯救心爱的女孩,他和从地狱返回德米克、帕布联合,与恶魔展开了较量……

Video
ID : 1
Format : AVC
Format/Info : Advanced Video Codec
Format profile : [email protected]
Format settings : CABAC / 4 Ref Frames
Format settings, CABAC : Yes
Format settings, Reference frames : 4 frames
Codec ID : V_MPEG4/ISO/AVC
Duration : 1 h 32 min
Bit rate : 12.1 Mb/s
Width : 1 920 pixels
Height : 1 040 pixels
Display aspect ratio : 1.85:1
Frame rate mode : Constant
Frame rate : 23.976 (24000/1001/189150) FPS
Color space : YUV
Chroma subsampling : 4:2:0
Bit depth : 8 bits
Scan type : Progressive
Bits/(Pixel*Frame) : 0.252
Stream size : 7.60 GiB (87%)
Writing library : x264 core 135 r2345kMod f0c1c53
Encoding settings : cabac=1 / ref=4 / deblock=1:-3:-3 / analyse=0x3:0x113 / me=umh / subme=8 / psy=1 / fade_compensate=0.00 / psy_rd=1.00:0.00 / mixed_ref=1 / me_range=16 / chroma_me=1 / trellis=1 / 8x8dct=1 / cqm=0 / deadzone=21,11 / fast_pskip=1 / chroma_qp_offset=-2 / threads=12 / lookahead_threads=2 / sliced_threads=0 / nr=0 / decimate=1 / interlaced=0 / bluray_compat=0 / constrained_intra=0 / bframes=3 / b_pyramid=2 / b_adapt=2 / b_bias=0 / direct=3 / weightb=1 / open_gop=0 / weightp=2 / keyint=240 / keyint_min=24 / scenecut=40 / intra_refresh=0 / rc_lookahead=50 / rc=2pass / mbtree=1 / bitrate=12088 / ratetol=1.0 / qcomp=0.60 / qpmin=0 / qpmax=69 / qpstep=4 / cplxblur=20.0 / qblur=0.5 / ip_ratio=1.40 / aq=1:1.00
Language : English
Default : Yes
Forced : No

Audio
ID : 2
Format : DTS
Format/Info : Digital Theater Systems
Codec ID : A_DTS
Duration : 1 h 32 min
Bit rate mode : Constant
Bit rate : 1 509 kb/s
Channel(s) : 6 channels
Channel layout : C L R Ls Rs LFE
Sampling rate : 48.0 kHz
Frame rate : 93.750 FPS (512 SPF)
Bit depth : 24 bits
Compression mode : Lossy
Stream size : 994 MiB (11%)
Language : English
Default : Yes
Forced : No

Text #1
ID : 3
Format : UTF-8
Codec ID : S_TEXT/UTF8
Codec ID/Info : UTF-8 Plain Text
Title : SDH
Language : English
Default : No
Forced : No

Text #2
ID : 4
Format : UTF-8
Codec ID : S_TEXT/UTF8
Codec ID/Info : UTF-8 Plain Text
Language : English
Default : No
Forced : No

Menu
00:00:00.000 : en:00:00:00.000
00:08:23.128 : en:00:08:23.128
00:10:03.603 : en:00:10:03.603
00:15:27.468 : en:00:15:27.468
00:22:23.217 : en:00:22:23.217
00:27:08.126 : en:00:27:08.126
00:34:44.582 : en:00:34:44.582
00:38:31.893 : en:00:38:31.893
00:41:58.725 : en:00:41:58.725
00:44:42.680 : en:00:44:42.680
00:52:19.428 : en:00:52:19.428
01:02:12.562 : en:01:02:12.562
01:08:39.699 : en:01:08:39.699
01:14:34.679 : en:01:14:34.679
01:19:28.305 : en:01:19:28.305
01:22:25.524 : en:01:22:25.524





1 个附件 售价 大小 下载 时间

Idle.Hands.1999.1080p.BluRay.X264-AMIABLE.zip 0 金币 88.85K 91 次 3天前

#1楼
发帖时间:2020-09-16 22:32:19   |   回复数:0
游客组