q3r3
一派掌门

[2011] [欧美] [其他] [BD-1080P] 惊声尖叫4 Scream.4.2011.1080p.BluRay.X264-AMIABLE 7.65GB

-->

帖子完整标题:惊声尖叫4 Scream.4.2011.1080p.BluRay.X264-AMIABLE 7.65GB



◎译  名 惊声尖叫4/Scre4m/夺命狂呼4(港)/尖叫4
◎片  名 Scream 4
◎年  代 2011
◎产  地 美国
◎类  别 悬疑 / 恐怖 / 犯罪
◎语  言 英语
◎上映日期 2011-04-15(美国)
◎IMDb评分 6.1/10 from 125235 users
◎IMDb链接 https://www.imdb.com/title/tt1262416/
◎豆瓣评分 6.2/10 from 14127 users
◎豆瓣链接 https://movie.douban.com/subject/3148064/
◎片  长 111分钟
◎导  演 韦斯·克雷文 Wes Craven
◎编  剧 凯文·威廉姆森 Kevin Williamson
◎主  演 内芙·坎贝尔 Neve Campbell
      柯特妮·考克斯 Courteney Cox
      大卫·阿奎特 David Arquette
      艾玛·罗伯茨 Emma Roberts
      安娜·帕奎因 Anna Paquin
      克里斯汀·贝尔 Kristen Bell
      海顿·潘妮蒂尔 Hayden Panettiere
      亚当·布罗迪 Adam Brody
      爱丽森·布里 Alison Brie
      玛丽·贾菲 Marielle Jaffe
      Dane Farwell
      艾米·缇加登 Aimee Teegarden
      南希·奥黛尔 Nancy O'Dell
      埃里克·克诺德森 Erik Knudsen
      安东尼·安德森 Anthony Anderson
      马克·亚伦·布尔克 Mark Aaron Buerkle
      韦斯·克雷文 Wes Craven
      戈登·迈克尔斯 Gordon Michaels
      玛丽·麦克唐纳 Mary McDonnell
      彼得·凯里 Peter Carey
      施蕾·葛莱姆斯 Shenae Grimes
      罗格·杰克逊 Roger Jackson
      布丽特·罗伯森 Britt Robertson
      露西·海尔 Lucy Hale
      尼可·托托雷拉 Nico Tortorella
      玛丽·谢尔顿 Marley Shelton
      罗瑞·卡尔金 Rory Culkin

◎标  签 惊悚 | 美国 | 恐怖 | 悬疑 | 惊声尖叫 | 2011 | 恐怖电影 | 电影

◎简  介

  继震惊全国的威兹堡命案发生已经过去10个年头了,当年的幸存者悉妮·普利斯科特(内维·坎贝尔 Neve Campbell 饰)经历了常人无法想象的痛苦与磨难,如今终于从过去的阴影走出。她将那段不堪回首的往事写成书,其经历也被拍成系列电影,一时间红遍全国。在全国签售的最后一站,悉妮来到故乡威兹堡。然而厄运似乎如影随形,前一晚两名妙龄女孩在家中即遭鬼脸杀手杀害,悉妮的车厢内更发现了带血的刀子。警长戴维(David Arquette 饰)对此高度关注,与妻子盖尔(Courteney Cox 饰)各自积极追查真凶。
  
  与此同时,悉妮的表妹吉尔(Emma Roberts 饰)和朋友们也受到陌生人的死亡来电。新一轮的屠杀就此展开,血雨腥风在所难免……

◎获奖情况

  第13届美国青少年选择奖 ?(2011)
  最佳恐怖片(提名)

Video
ID : 1
Format : AVC
Format/Info : Advanced Video Codec
Format profile : [email protected]
Format settings : CABAC / 5 Ref Frames
Format settings, CABAC : Yes
Format settings, Reference frames : 5 frames
Codec ID : V_MPEG4/ISO/AVC
Duration : 1 h 50 min
Bit rate : 8 380 kb/s
Width : 1 920 pixels
Height : 800 pixels
Display aspect ratio : 2.40:1
Frame rate mode : Constant
Frame rate : 23.976 (24000/1001/189150) FPS
Color space : YUV
Chroma subsampling : 4:2:0
Bit depth : 8 bits
Scan type : Progressive
Bits/(Pixel*Frame) : 0.228
Stream size : 6.33 GiB (83%)
Writing library : x264 core 116 r2057 0ba8a9c
Encoding settings : cabac=1 / ref=5 / deblock=1:0:0 / analyse=0x3:0x113 / me=umh / subme=8 / psy=1 / psy_rd=1.00:0.00 / mixed_ref=1 / me_range=16 / chroma_me=1 / trellis=1 / 8x8dct=1 / cqm=0 / deadzone=21,11 / fast_pskip=1 / chroma_qp_offset=-2 / threads=12 / sliced_threads=0 / nr=0 / decimate=1 / interlaced=0 / bluray_compat=0 / constrained_intra=0 / bframes=3 / b_pyramid=2 / b_adapt=2 / b_bias=0 / direct=3 / weightb=1 / open_gop=0 / weightp=2 / keyint=240 / keyint_min=24 / scenecut=40 / intra_refresh=0 / rc_lookahead=50 / rc=2pass / mbtree=1 / bitrate=8380 / ratetol=1.0 / qcomp=0.60 / qpmin=0 / qpmax=69 / qpstep=4 / cplxblur=20.0 / qblur=0.5 / ip_ratio=1.40 / aq=1:1.00
Language : English
Default : Yes
Forced : No

Audio
ID : 2
Format : DTS
Format/Info : Digital Theater Systems
Codec ID : A_DTS
Duration : 1 h 50 min
Bit rate mode : Constant
Bit rate : 1 509 kb/s
Channel(s) : 6 channels
Channel layout : C L R Ls Rs LFE
Sampling rate : 48.0 kHz
Frame rate : 93.750 FPS (512 SPF)
Bit depth : 24 bits
Compression mode : Lossy
Stream size : 1.17 GiB (15%)
Language : English
Default : Yes
Forced : No

Text
ID : 3
Format : UTF-8
Codec ID : S_TEXT/UTF8
Codec ID/Info : UTF-8 Plain Text
Language : English
Default : No
Forced : No

Menu
00:00:00.000 : en:00:00:00.000
00:10:49.190 : en:00:10:49.190
00:18:58.804 : en:00:18:58.804
00:28:40.802 : en:00:28:40.802
00:38:51.079 : en:00:38:51.079
00:48:33.494 : en:00:48:33.494
00:56:59.458 : en:00:56:59.458
01:05:31.136 : en:01:05:31.136
01:13:56.432 : en:01:13:56.432
01:24:42.577 : en:01:24:42.577
01:34:13.606 : en:01:34:13.606
01:43:32.623 : en:01:43:32.623





1 个附件 售价 大小 下载 时间

Scream.4.2011.1080p.BluRay.X264-AMIABLE.zip 0 金币 77.94K 189 次 3天前

#1楼
发帖时间:2020-09-16 22:28:53   |   回复数:0
游客组