q3r3
一派掌门

[更 早] [欧美] [喜剧] [BD-1080P] 捉鬼敢死队2/魔鬼克星2 Ghostbusters.II.1989.1080p.BluRay.X264-AMIABLE 7.94GB

-->

帖子完整标题:捉鬼敢死队2/魔鬼克星2 Ghostbusters.II.1989.1080p.BluRay.X264-AMIABLE 7.94GB



◎译  名 捉鬼敢死队2/魔鬼克星2(台)
◎片  名 Ghostbusters II
◎年  代 1989
◎产  地 美国
◎类  别 喜剧 / 科幻 / 奇幻
◎语  言 英语
◎上映日期 1989-06-19
◎IMDb评分 6.6/10 from 179491 users
◎IMDb链接 https://www.imdb.com/title/tt0097428/
◎豆瓣评分 6.6/10 from 3279 users
◎豆瓣链接 https://movie.douban.com/subject/1297946/
◎片  长 108 分钟
◎导  演 伊万·雷特曼 Ivan Reitman
◎编  剧 丹·艾克罗伊德 Dan Aykroyd / 哈罗德·雷米斯 Harold Ramis
◎主  演 比尔·默瑞 Bill Murray
      丹·艾克罗伊德 Dan Aykroyd
      西格妮·韦弗 Sigourney Weaver
      哈罗德·雷米斯 Harold Ramis
      里克·莫拉尼斯 Rick Moranis
      凯文·杜恩 Kevin Dunn
      彼特·麦尼科 Peter MacNicol
      乔治·P·威尔伯 George P. Wilbur
      贾森·雷特曼 Jason Reitman
      佩姬·梁 Page Leong
      尤金·列维 Eugene Levy
      戴夫·弗洛雷克 Dave Florek
      威赫姆·冯·霍姆伯格 Wilhelm von Homburg
      柯特·富勒 Kurt Fuller
      菲利普·贝克·霍尔 Philip Baker Hall
      马克斯·冯·叙多夫 Max von Sydow
      伊万·雷特曼 Ivan Reitman
      布赖恩·道尔 Brian Doyle
      安妮·波茨 Annie Potts
      埃涅·赫德森 Ernie Hudson
      珍妮特·玛戈林 Janet Margolin
      切奇·马林 Cheech Marin
      科洛·韦伯 Chloe Webb
      Robert Alan Beuth
      鲍比·布朗 Bobby Brown
      哈里斯·于林 Harris Yulin
      玛丽·艾伦·特雷纳 Mary Ellen Trainor
      本·斯坦 Ben Stein
      路易丝·特洛伊 Louise Troy
      Kariim Ratcliff
      Douglas Seale
      凯瑟琳·瑞特曼 Catherine Reitman
      克里斯托弗·尼姆 Christopher Neame
      迈克尔·P·莫兰 Michael P. Moran
      大卫·马古利斯 David Margulies
      阿隆·鲁斯汀 Aaron Lustig
      John Hammil
      George G. Colucci
      理查德·弗让吉 Richard Foronjy
      Walter Flanagan

◎标  签 喜剧 | 美国 | 科幻 | 奇幻 | 1989 | 美国电影 | 电影 | BillMurray

◎简  介

  捉鬼敢死队员们又一次拿起武器在曼哈顿与恶魔决斗,在纽约城一场小战争后,敢死队发现一个千年恶魔准备重返地球并对曼哈顿不怀好意,而且通过他的王国---曼哈顿艺术博物馆进行破坏行动,现在只有捉鬼敢死队为了拯救纽约城与恶魔决斗一场……

Video
ID : 1
Format : AVC
Format/Info : Advanced Video Codec
Format profile : [email protected]
Format settings : CABAC / 5 Ref Frames
Format settings, CABAC : Yes
Format settings, Reference frames : 5 frames
Codec ID : V_MPEG4/ISO/AVC
Duration : 1 h 48 min
Bit rate : 8 990 kb/s
Width : 1 920 pixels
Height : 800 pixels
Display aspect ratio : 2.40:1
Frame rate mode : Constant
Frame rate : 23.976 (24000/1001/189150) FPS
Color space : YUV
Chroma subsampling : 4:2:0
Bit depth : 8 bits
Scan type : Progressive
Bits/(Pixel*Frame) : 0.244
Stream size : 6.64 GiB (84%)
Writing library : x264 core 142 r2453 ea0ca51
Encoding settings : cabac=1 / ref=5 / deblock=1:-3:-3 / analyse=0x3:0x113 / me=umh / subme=8 / psy=1 / psy_rd=1.00:0.00 / mixed_ref=1 / me_range=16 / chroma_me=1 / trellis=1 / 8x8dct=1 / cqm=0 / deadzone=21,11 / fast_pskip=1 / chroma_qp_offset=-2 / threads=12 / lookahead_threads=2 / sliced_threads=0 / nr=0 / decimate=1 / interlaced=0 / bluray_compat=0 / constrained_intra=0 / bframes=3 / b_pyramid=2 / b_adapt=2 / b_bias=0 / direct=3 / weightb=1 / open_gop=0 / weightp=2 / keyint=240 / keyint_min=24 / scenecut=40 / intra_refresh=0 / rc_lookahead=50 / rc=2pass / mbtree=1 / bitrate=8990 / ratetol=1.0 / qcomp=0.60 / qpmin=0 / qpmax=69 / qpstep=4 / cplxblur=20.0 / qblur=0.5 / ip_ratio=1.40 / aq=1:1.00
Language : English
Default : Yes
Forced : No

Audio
ID : 2
Format : DTS
Format/Info : Digital Theater Systems
Codec ID : A_DTS
Duration : 1 h 48 min
Bit rate mode : Constant
Bit rate : 1 509 kb/s
Channel(s) : 6 channels
ChannelLayout_Original : C L R Ls Rs LFE
Sampling rate : 48.0 kHz
Frame rate : 93.750 FPS (512 SPF)
Bit depth : 24 bits
Compression mode : Lossy
Stream size : 1.14 GiB (14%)
Language : English
Default : Yes
Forced : No

Text #1
ID : 3
Format : UTF-8
Codec ID : S_TEXT/UTF8
Codec ID/Info : UTF-8 Plain Text
Language : English
Default : No
Forced : No

Text #2
ID : 4
Format : UTF-8
Codec ID : S_TEXT/UTF8
Codec ID/Info : UTF-8 Plain Text
Title : SDH
Language : English
Default : No
Forced : No

Menu
00:00:00.000 : en:00:00:00.000
00:05:00.550 : en:00:05:00.550
00:11:44.162 : en:00:11:44.162
00:18:16.012 : en:00:18:16.012
00:23:36.498 : en:00:23:36.498
00:32:39.958 : en:00:32:39.958
00:39:20.817 : en:00:39:20.817
00:46:15.147 : en:00:46:15.147
00:52:36.487 : en:00:52:36.487
00:58:45.981 : en:00:58:45.981
01:05:34.055 : en:01:05:34.055
01:14:06.776 : en:01:14:06.776
01:19:22.216 : en:01:19:22.216
01:27:22.529 : en:01:27:22.529
01:33:06.539 : en:01:33:06.539
01:38:10.635 : en:01:38:10.635





1 个附件 售价 大小 下载 时间

Ghostbusters.II.1989.1080p.BluRay.X264-AMIABLE.zip 0 金币 80.89K 231 次 3天前

#1楼
发帖时间:2020-09-16 22:14:18   |   回复数:0
游客组