q3r3
一派掌门

[更 早] [欧美] [喜剧] [BD-1080P] 鬼马小精灵/卡斯珀 Casper.1995.1080p.BluRay.X264-AMIABLE 7.65GB

-->

帖子完整标题:鬼马小精灵/卡斯珀 Casper.1995.1080p.BluRay.X264-AMIABLE 7.65GB



◎译  名 鬼马小精灵/卡斯珀/鬼马小灵精
◎片  名 Casper
◎年  代 1995
◎产  地 美国
◎类  别 喜剧 / 奇幻
◎语  言 英语
◎上映日期 1995-05-26(美国)
◎IMDb评分 6.1/10 from 117210 users
◎IMDb链接 https://www.imdb.com/title/tt0112642/
◎豆瓣评分 8.1/10 from 21918 users
◎豆瓣链接 https://movie.douban.com/subject/1305217/
◎片  长 100 分钟
◎导  演 布拉德·塞伯宁 Brad Silberling
◎编  剧 约瑟夫·奥廖洛 Joseph Oriolo / 谢里·斯托纳 Sherri Stoner / 迪安娜·奥利弗 Deanna Oliver
◎主  演 克里斯蒂娜·里奇 Christina Ricci
      艾瑞克·爱都 Eric Idle
      本·斯坦 Ben Stein
      比尔·普尔曼 Bill Pullman
      昌西·莱奥普拉迪 Chauncey Leopardi
      加雷特·拉特利夫·亨森 Garette Ratliff Henson
      戴文·萨瓦 Devon Sawa
      杰茜卡·韦森 Jessica Wesson

◎标  签 动画 | 美国 | 魔幻 | 童年 | 喜剧 | 美国电影 | CASPER | 动画片

◎简  介

  某富豪过世,他将大部分财产捐给各种慈善机构,只给自己专横跋扈的继女凯丽根·克里坦顿(凯西·莫拉蒂 Cathy Moriarty 饰)留下一幢位于缅因州的别墅。这幢名为维普斯大府庄园的别墅拥有很久的历史,如今早已破败不堪,无法住人。凯丽根起初愤怒不已,但她偶然知晓别墅内可能藏着金银财宝,于是和律师帝布斯(Eric Idle 饰)欣然前往。令他们想不到的是,这里竟然还住着4个幽灵。财宝当前,贪心之人想方设法要把幽灵赶走……
  
  本片荣获1996年美国科幻与恐怖电影学院青年演员最佳表演奖(克里斯蒂娜·里奇 Christina Ricci)、1996年青年艺术家奖最佳表演(配音)奖(Malachi Pearson)。

Video
ID : 1
Format : AVC
Format/Info : Advanced Video Codec
Format profile : [email protected]
Format settings : CABAC / 4 Ref Frames
Format settings, CABAC : Yes
Format settings, Reference frames : 4 frames
Codec ID : V_MPEG4/ISO/AVC
Duration : 1 h 40 min
Bit rate : 9 430 kb/s
Width : 1 920 pixels
Height : 1 040 pixels
Display aspect ratio : 1.85:1
Frame rate mode : Constant
Frame rate : 23.976 (24000/1001/189150) FPS
Color space : YUV
Chroma subsampling : 4:2:0
Bit depth : 8 bits
Scan type : Progressive
Bits/(Pixel*Frame) : 0.197
Stream size : 6.44 GiB (84%)
Writing library : x264 core 142 r2453 ea0ca51
Encoding settings : cabac=1 / ref=4 / deblock=1:-3:-3 / analyse=0x3:0x113 / me=umh / subme=8 / psy=1 / psy_rd=1.00:0.00 / mixed_ref=1 / me_range=16 / chroma_me=1 / trellis=1 / 8x8dct=1 / cqm=0 / deadzone=21,11 / fast_pskip=1 / chroma_qp_offset=-2 / threads=12 / lookahead_threads=2 / sliced_threads=0 / nr=0 / decimate=1 / interlaced=0 / bluray_compat=0 / constrained_intra=0 / bframes=3 / b_pyramid=2 / b_adapt=2 / b_bias=0 / direct=3 / weightb=1 / open_gop=0 / weightp=2 / keyint=240 / keyint_min=24 / scenecut=40 / intra_refresh=0 / rc_lookahead=50 / rc=2pass / mbtree=1 / bitrate=9430 / ratetol=1.0 / qcomp=0.60 / qpmin=0 / qpmax=69 / qpstep=4 / cplxblur=20.0 / qblur=0.5 / ip_ratio=1.40 / aq=1:1.00
Language : English
Default : Yes
Forced : No

Audio
ID : 2
Format : DTS
Format/Info : Digital Theater Systems
Codec ID : A_DTS
Duration : 1 h 40 min
Bit rate mode : Constant
Bit rate : 1 509 kb/s
Channel(s) : 6 channels
ChannelLayout_Original : C L R Ls Rs LFE
Sampling rate : 48.0 kHz
Frame rate : 93.750 FPS (512 SPF)
Bit depth : 24 bits
Compression mode : Lossy
Stream size : 1.06 GiB (14%)
Language : English
Default : Yes
Forced : No

Text #1
ID : 3
Format : UTF-8
Codec ID : S_TEXT/UTF8
Codec ID/Info : UTF-8 Plain Text
Title : SDH
Language : English
Default : No
Forced : No

Text #2
ID : 4
Format : UTF-8
Codec ID : S_TEXT/UTF8
Codec ID/Info : UTF-8 Plain Text
Language : English
Default : No
Forced : No

Menu
00:00:00.000 : en:00:00:00.000
00:02:44.456 : en:00:02:44.456
00:05:16.900 : en:00:05:16.900
00:10:37.136 : en:00:10:37.136
00:19:23.871 : en:00:19:23.871
00:27:11.171 : en:00:27:11.171
00:29:44.783 : en:00:29:44.783
00:37:31.332 : en:00:37:31.332
00:40:56.746 : en:00:40:56.746
00:44:26.622 : en:00:44:26.622
00:50:20.142 : en:00:50:20.142
00:58:32.008 : en:00:58:32.008
01:02:35.543 : en:01:02:35.543
01:05:24.921 : en:01:05:24.921
01:12:26.008 : en:01:12:26.008
01:15:19.724 : en:01:15:19.724
01:20:29.199 : en:01:20:29.199
01:25:21.908 : en:01:25:21.908
01:27:12.519 : en:01:27:12.519
01:32:17.824 : en:01:32:17.824





1 个附件 售价 大小 下载 时间

Casper.1995.1080p.BluRay.X264-AMIABLE.zip 0 金币 77.94K 357 次 2天前

#1楼
发帖时间:2020-09-16 22:11:08   |   回复数:0
游客组