q3r3
一派掌门

[更 早] [欧美] [剧情] [BD-1080P] 红颜祸水/危险尤物 Dangerous.Beauty.1998.1080p.BluRay.X264-AMIABLE 7.65GB

-->

帖子完整标题:红颜祸水/危险尤物 Dangerous.Beauty.1998.1080p.BluRay.X264-AMIABLE 7.65GB



◎译  名 红颜祸水/危险尤物/威尼斯之女/宠妓/绝代宠妓
◎片  名 Dangerous Beauty
◎年  代 1998
◎产  地 美国
◎类  别 剧情 / 爱情 / 传记
◎语  言 英语
◎上映日期 1998-02-20
◎IMDb评分 7.2/10 from 15793 users
◎IMDb链接 https://www.imdb.com/title/tt0118892/
◎豆瓣评分 7.5/10 from 4360 users
◎豆瓣链接 https://movie.douban.com/subject/1292931/
◎片  长 111 分钟
◎导  演 马歇尔·赫斯科维兹 Marshall Herskovitz
◎主  演 凯瑟琳·麦克马克 Catherine McCormack
      卢夫斯·塞维尔 Rufus Sewell
      奥利弗·普莱特 Oliver Platt
      弗莱德·沃德 Fred Ward
      杰克·韦伯 Jake Weber
      西蒙娜·诺比利 Simona Nobili
      娜奥米·沃茨 Naomi Watts
      丹尼尔·莱派恩 Daniel Lapaine

◎标  签 爱情 | 美国 | 女性 | 美国电影 | 情色 | 红颜祸水 | 剧情 | 电影

◎简  介

  宠妓,16世纪水城威尼斯最美丽的风景。她们风流典雅,吟诗作赋,尽情地绽放女人最美丽的一面,而维诺妮卡(Catherine McCormack)是其中最美丽的威尼斯之花。
  
  出生普通家庭的她与青年贵族马可(Rufus Sewell )相恋,然而家庭地位的悬殊使这段恋情无果而终。失意的维诺妮卡为了得到心爱的男人,选择了宠妓之路。优雅动人的她让得不到的男人又恨又爱,让贵族的妻子们妒火中烧。不久战争爆发了,国家陷入危机和惶恐之中,维诺妮卡为国家利益挺身而出。然而战后她却被视为红颜祸水,成为众矢之的。
  
  美丽如她,能得到旁人真正的爱恋和理解么?

Video
ID : 1
Format : AVC
Format/Info : Advanced Video Codec
Format profile : [email protected]
Format settings : CABAC / 5 Ref Frames
Format settings, CABAC : Yes
Format settings, Reference frames : 5 frames
Codec ID : V_MPEG4/ISO/AVC
Duration : 1 h 51 min
Bit rate : 9 615 kb/s
Width : 1 920 pixels
Height : 816 pixels
Display aspect ratio : 2.35:1
Frame rate mode : Constant
Frame rate : 23.976 (24000/1001/189150) FPS
Color space : YUV
Chroma subsampling : 4:2:0
Bit depth : 8 bits
Scan type : Progressive
Bits/(Pixel*Frame) : 0.256
Stream size : 7.35 GiB (96%)
Writing library : x264 core 158 r2984 3759fcb
Encoding settings : cabac=1 / ref=5 / deblock=1:-3:-3 / analyse=0x3:0x113 / me=umh / subme=8 / psy=1 / psy_rd=1.05:0.00 / mixed_ref=1 / me_range=32 / chroma_me=1 / trellis=2 / 8x8dct=1 / cqm=0 / deadzone=21,11 / fast_pskip=1 / chroma_qp_offset=-2 / threads=25 / lookahead_threads=4 / sliced_threads=0 / nr=0 / decimate=1 / interlaced=0 / bluray_compat=0 / constrained_intra=0 / bframes=3 / b_pyramid=2 / b_adapt=2 / b_bias=0 / direct=3 / weightb=1 / open_gop=0 / weightp=2 / keyint=240 / keyint_min=24 / scenecut=40 / intra_refresh=0 / rc_lookahead=50 / rc=2pass / mbtree=1 / bitrate=9615 / ratetol=1.0 / qcomp=0.60 / qpmin=0 / qpmax=69 / qpstep=4 / cplxblur=20.0 / qblur=0.5 / ip_ratio=1.40 / aq=3:0.70
Default : Yes
Forced : No
Statistics Tags Issue : no_variable_data 1970-01-01 00:00:00 / no_variable_data 2010-02-22 21:41:29
FromStats_BitRate : 9614450
FromStats_Duration : 01:51:39.443000000
FromStats_FrameCount : 160626
FromStats_StreamSize : 8051432529

Audio
ID : 2
Format : AC-3
Format/Info : Audio Coding 3
Commercial name : Dolby Digital
Codec ID : A_AC3
Duration : 1 h 51 min
Bit rate mode : Constant
Bit rate : 192 kb/s
Channel(s) : 2 channels
Channel layout : L R
Sampling rate : 48.0 kHz
Frame rate : 31.250 FPS (1536 SPF)
Compression mode : Lossy
Stream size : 153 MiB (2%)
Language : English
Service kind : Complete Main
Default : Yes
Forced : No
Statistics Tags Issue : no_variable_data 1970-01-01 00:00:00 / no_variable_data 2010-02-22 21:41:29
FromStats_BitRate : 192000
FromStats_Duration : 01:51:39.424000000
FromStats_FrameCount : 209357
FromStats_StreamSize : 160786176

Text #1
ID : 3
Format : UTF-8
Codec ID : S_TEXT/UTF8
Codec ID/Info : UTF-8 Plain Text
Language : English
Default : No
Forced : No
Statistics Tags Issue : no_variable_data 1970-01-01 00:00:00 / no_variable_data 2010-02-22 21:41:29
FromStats_BitRate : 39
FromStats_Duration : 01:45:35.958000000
FromStats_FrameCount : 989
FromStats_StreamSize : 30891

Text #2
ID : 4
Format : UTF-8
Codec ID : S_TEXT/UTF8
Codec ID/Info : UTF-8 Plain Text
Title : SDH
Language : English
Default : No
Forced : No
Statistics Tags Issue : no_variable_data 1970-01-01 00:00:00 / no_variable_data 2010-02-22 21:41:29
FromStats_BitRate : 51
FromStats_Duration : 01:45:38.832000000
FromStats_FrameCount : 1221
FromStats_StreamSize : 40493

Text #3
ID : 5
Format : UTF-8
Codec ID : S_TEXT/UTF8
Codec ID/Info : UTF-8 Plain Text
Language : English
Default : No
Forced : No
Statistics Tags Issue : no_variable_data 1970-01-01 00:00:00 / no_variable_data 2010-02-22 21:41:29
FromStats_BitRate : 46
FromStats_Duration : 01:45:38.832000000
FromStats_FrameCount : 1032
FromStats_StreamSize : 37061

Menu
00:00:00.000 : en:Chapter 01
00:11:58.320 : en:Chapter 02
00:26:12.320 : en:Chapter 03
00:41:15.200 : en:Chapter 04
00:56:27.520 : en:Chapter 05
01:11:04.040 : en:Chapter 06
01:21:35.840 : en:Chapter 07
01:31:26.440 : en:Chapter 08
01:43:44.000 : en:Chapter 09





1 个附件 售价 大小 下载 时间

Dangerous.Beauty.1998.1080p.BluRay.X264-AMIABLE.zip 0 金币 39.77K 644 次 2天前

#1楼
发帖时间:2020-09-16 22:07:01   |   回复数:1
tokyoal
武林盟主
               
谢谢分享
2天前 #2楼
游客组