fg603603
武林盟主

[更 早] [欧美] [其他] [BD-1080P] 夜间狙击者/午夜煞星 The.Night.Stalker.1972.1080p.BluRay.x264-PSYCHD 7.95GB

-->

帖子完整标题:夜间狙击者/午夜煞星 The.Night.Stalker.1972.1080p.BluRay.x264-PSYCHD 7.95GB



◎译  名 夜间狙击者/午夜煞星
◎片  名 The Night Stalker
◎年  代 1972
◎产  地 美国
◎类  别 悬疑 / 惊悚 / 恐怖
◎语  言 英语
◎上映日期 1972-01-11
◎IMDb评分 7.6/10 from 5176 users
◎IMDb链接 https://www.imdb.com/title/tt0067490/
◎豆瓣评分 /10 from 0 users
◎豆瓣链接 https://movie.douban.com/subject/3104330/
◎片  长 74分钟
◎导  演 约翰·卢埃林·摩西 John Llewellyn Moxey
◎编  剧 Max Hodge / 理查德·麦瑟森 Richard Matheson
◎主  演 达伦·麦克加文 Darren McGavin
      卡洛尔·琳蕾 Carol Lynley
      西蒙·奥克兰 Simon Oakland
      查尔斯·麦格劳 Charles McGraw
      巴迪·乔·胡克 Buddy Joe Hooker
      维吉尼亚·格雷格 Virginia Gregg
      Edward Faulkner
      乔丹·罗兹 Jordan Rhodes
      小伊莱莎·库克 Elisha Cook Jr.
      巴里·阿特沃特 Barry Atwater
      斯坦利·亚当斯 Stanley Adams
      拉尔夫·米克 Ralph Meeker
      肯特·史密斯 Kent Smith
      拉里·林维尔 Larry Linville
      克劳德·艾金斯 Claude Akins

◎标  签 悬疑 | 惊悚 | 恐怖 | 美国 | 美国电影 | 1972 | 驚悚 | 記者

◎简  介

  Carl Kolchak is a newspaper reporter with an abrasive personality that has gotten him fired ten times from various big-city papers. Now he's reduced to reporting for a relatively small-time paper in Las Vegas. It's here he gets the story of his life. But will the local sheriff, or the D.A., or even his own boss, let him print it? He has an ally in the FBI agent brought in to investigate this strange case. It seems someone is biting the necks of young girls and draining their blood. Can this killer with supernormal powers really be a 70-year-old Rumanian millionaire? Can he really be a vampire? And can an aging reporter do anything to stop him?

Video
ID : 1
Format : AVC
Format/Info : Advanced Video Codec
Format profile : [email protected]
Format settings : CABAC / 5 Ref Frames
Format settings, CABAC : Yes
Format settings, Reference frames : 5 frames
Codec ID : V_MPEG4/ISO/AVC
Duration : 1 h 14 min
Bit rate : 13.8 Mb/s
Width : 1 440 pixels
Height : 1 080 pixels
Display aspect ratio : 4:3
Frame rate mode : Constant
Frame rate : 23.976 (24000/1001/189150) FPS
Color space : YUV
Chroma subsampling : 4:2:0
Bit depth : 8 bits
Scan type : Progressive
Bits/(Pixel*Frame) : 0.369
Stream size : 7.00 GiB (88%)
Writing library : x264 core 157 r2932 303c484
Encoding settings : cabac=1 / ref=5 / deblock=1:-3:-3 / analyse=0x3:0x113 / me=umh / subme=8 / psy=1 / psy_rd=1.12:0.00 / mixed_ref=1 / me_range=32 / chroma_me=1 / trellis=2 / 8x8dct=1 / cqm=0 / deadzone=21,11 / fast_pskip=1 / chroma_qp_offset=-2 / threads=34 / lookahead_threads=5 / sliced_threads=0 / nr=0 / decimate=1 / interlaced=0 / bluray_compat=0 / constrained_intra=0 / bframes=3 / b_pyramid=2 / b_adapt=2 / b_bias=0 / direct=3 / weightb=1 / open_gop=0 / weightp=2 / keyint=240 / keyint_min=24 / scenecut=40 / intra_refresh=0 / rc_lookahead=50 / rc=2pass / mbtree=1 / bitrate=13750 / ratetol=1.0 / qcomp=0.60 / qpmin=0 / qpmax=69 / qpstep=4 / cplxblur=20.0 / qblur=0.5 / ip_ratio=1.40 / aq=3:0.75
Default : Yes
Forced : No
Statistics Tags Issue : no_variable_data 1970-01-01 00:00:00 / no_variable_data 2010-02-22 21:41:29
FromStats_BitRate : 13749404
FromStats_Duration : 01:14:30.800000000
FromStats_FrameCount : 107192
FromStats_StreamSize : 7683854936

Audio
ID : 2
Format : DTS
Format/Info : Digital Theater Systems
Codec ID : A_DTS
Duration : 1 h 14 min
Bit rate mode : Constant
Bit rate : 1 509 kb/s
Channel(s) : 2 channels
Channel layout : L R
Sampling rate : 48.0 kHz
Frame rate : 93.750 FPS (512 SPF)
Bit depth : 24 bits
Compression mode : Lossy
Stream size : 804 MiB (10%)
Language : English
Default : Yes
Forced : No
Statistics Tags Issue : no_variable_data 1970-01-01 00:00:00 / no_variable_data 2010-02-22 21:41:29
FromStats_BitRate : 1509000
FromStats_Duration : 01:14:30.816000000
FromStats_FrameCount : 419139
FromStats_StreamSize : 843307668

Text
ID : 3
Format : UTF-8
Codec ID : S_TEXT/UTF8
Codec ID/Info : UTF-8 Plain Text
Language : English
Default : No
Forced : No
Statistics Tags Issue : no_variable_data 1970-01-01 00:00:00 / no_variable_data 2010-02-22 21:41:29
FromStats_BitRate : 65
FromStats_Duration : 01:12:03.359000000
FromStats_FrameCount : 915
FromStats_StreamSize : 35153

Menu
00:00:00.000 : en:00:00:00.000
00:12:00.262 : en:00:12:00.262
00:20:26.268 : en:00:20:26.268
00:31:39.482 : en:00:31:39.482
00:39:57.813 : en:00:39:57.813
00:49:44.316 : en:00:49:44.316
00:58:28.047 : en:00:58:28.047
01:04:43.422 : en:01:04:43.422





1 个附件 售价 大小 下载 时间

The.Night.Stalker.1972.1080p.BluRay.x264-PSYCHD.zip 0 金币 81.00K 77 次 3天前

#1楼
发帖时间:2020-09-16 21:56:32   |   回复数:0
游客组