q3r3
一派掌门

[更 早] [欧美] [剧情] [BD-1080P] 天牢勇士 The.Jericho.Mile.1979.1080p.BluRay.x264-PSYCHD 9.84GB

-->

帖子完整标题:天牢勇士 The.Jericho.Mile.1979.1080p.BluRay.x264-PSYCHD 9.84GB



◎译  名 天牢勇士/Hombre Libre
◎片  名 The Jericho Mile
◎年  代 1979
◎产  地 美国
◎类  别 剧情 / 犯罪 / 运动
◎语  言 英语
◎上映日期 1979-03-18(美国)
◎IMDb评分 7.3/10 from 1440 users
◎IMDb链接 https://www.imdb.com/title/tt0079366/
◎豆瓣评分 /10 from 0 users
◎豆瓣链接 https://movie.douban.com/subject/1303755/
◎片  长 97分钟
◎导  演 迈克尔·曼 Michael Mann
◎编  剧 迈克尔·曼 Michael Mann / Patrick J. Nolan
◎主  演 彼得·斯特劳斯 Peter Strauss
      理查德·劳森 Richard Lawson
      罗杰·E·莫斯利 Roger E. Mosley
      威廉·普林斯 William Prince
      布莱恩·丹内利 Brian Dennehy
      埃德蒙·彭尼 Edmund Penney
      贝弗利·陶德 Beverly Todd
      理查德·莫尔 Richard Moll
      埃德·劳特尔 Ed Lauter
      伯顿·吉列姆 Burton Gilliam
      Jimmy Coppola
      杰佛里·刘易斯 Geoffrey Lewis
      Miguel Pinero
      吉-杜·根伯卡 Ji-Tu Cumbuka

◎标  签 迈克尔·曼 | 美国 | 跑步 | 外国 | 有 | 彼得·斯特劳斯 | D迈克尔·曼 | 70s

◎简  介

  暂无相关剧情介绍

Video
ID : 1
Format : AVC
Format/Info : Advanced Video Codec
Format profile : [email protected]
Format settings : CABAC / 5 Ref Frames
Format settings, CABAC : Yes
Format settings, Reference frames : 5 frames
Codec ID : V_MPEG4/ISO/AVC
Duration : 1 h 37 min
Bit rate : 13.0 Mb/s
Width : 1 440 pixels
Height : 1 080 pixels
Display aspect ratio : 4:3
Frame rate mode : Constant
Frame rate : 23.976 (24000/1001/189150) FPS
Color space : YUV
Chroma subsampling : 4:2:0
Bit depth : 8 bits
Scan type : Progressive
Bits/(Pixel*Frame) : 0.348
Stream size : 8.62 GiB (88%)
Writing library : x264 core 157 r2932 303c484
Encoding settings : cabac=1 / ref=5 / deblock=1:-3:-3 / analyse=0x3:0x113 / me=umh / subme=8 / psy=1 / psy_rd=1.15:0.00 / mixed_ref=1 / me_range=32 / chroma_me=1 / trellis=2 / 8x8dct=1 / cqm=0 / deadzone=21,11 / fast_pskip=1 / chroma_qp_offset=-2 / threads=34 / lookahead_threads=5 / sliced_threads=0 / nr=0 / decimate=1 / interlaced=0 / bluray_compat=0 / constrained_intra=0 / bframes=3 / b_pyramid=2 / b_adapt=2 / b_bias=0 / direct=3 / weightb=1 / open_gop=0 / weightp=2 / keyint=240 / keyint_min=24 / scenecut=40 / intra_refresh=0 / rc_lookahead=50 / rc=2pass / mbtree=1 / bitrate=12983 / ratetol=1.0 / qcomp=0.60 / qpmin=0 / qpmax=69 / qpstep=4 / cplxblur=20.0 / qblur=0.5 / ip_ratio=1.40 / aq=3:0.75
Default : Yes
Forced : No
Statistics Tags Issue : no_variable_data 1970-01-01 00:00:00 / no_variable_data 2010-02-22 21:41:29
FromStats_BitRate : 12981689
FromStats_Duration : 01:37:10.825000000
FromStats_FrameCount : 139800
FromStats_StreamSize : 9461744613

Audio
ID : 2
Format : DTS
Format/Info : Digital Theater Systems
Codec ID : A_DTS
Duration : 1 h 37 min
Bit rate mode : Constant
Bit rate : 1 509 kb/s
Channel(s) : 2 channels
Channel layout : L R
Sampling rate : 48.0 kHz
Frame rate : 93.750 FPS (512 SPF)
Bit depth : 24 bits
Compression mode : Lossy
Stream size : 1.02 GiB (10%)
Language : English
Default : Yes
Forced : No
Statistics Tags Issue : no_variable_data 1970-01-01 00:00:00 / no_variable_data 2010-02-22 21:41:29
FromStats_BitRate : 1508999
FromStats_Duration : 01:37:10.838000000
FromStats_FrameCount : 546641
FromStats_StreamSize : 1099841692

Menu
00:00:00.000 : en:00:00:00.000
00:10:27.545 : en:00:10:27.545
00:20:09.543 : en:00:20:09.543
00:28:15.487 : en:00:28:15.487
00:40:32.306 : en:00:40:32.306
00:55:54.686 : en:00:55:54.686
01:05:24.005 : en:01:05:24.005
01:19:04.282 : en:01:19:04.282





1 个附件 售价 大小 下载 时间

The.Jericho.Mile.1979.1080p.BluRay.x264-PSYCHD.zip 0 金币 99.88K 49 次 4天前

#1楼
发帖时间:2020-09-15 22:52:03   |   回复数:1
yangbo83222179
一代宗师
谢谢楼主分享
3天前 #2楼
游客组