coor
一代宗师

[2008] [其他] [惊悚] [BD-1080P] 灯塔凶机 Behind.The.Wall.2008.1080p.BluRay.x264.DTS-FGT 6.39GB

-->



◎译  名 灯塔凶机 / The Wall / 高墙背后
◎片  名 Behind the Wall
◎年  代 2008
◎产  地 美国 / 加拿大
◎类  别 惊悚 / 恐怖
◎语  言 英语
◎上映日期 2008-08-30
◎IMDb评分 3.6/10 from 554 users
◎IMDb链接 https://www.imdb.com/title/tt1070886
◎豆瓣评分 4.4/10 from 103 users
◎豆瓣链接 https://movie.douban.com/subject/3072794/
◎片  长 94 分钟
◎导  演 Paul Schneider
◎编  剧 Michael Bafaro / Anna Singer
◎主  演 Lindy Booth
      James Thomas
      Brad Hodder
      Lawrence Dane
      Suzie Pollard


◎标  签 恐怖 | 美国 | 悬疑 | 2008 | 惊悚 | 灵异 | 美国电影 | 电影

◎简  介

  八岁那年,凯特琳在灯塔改造的家中发现母亲被谋杀身亡。尽管在动机不明的情况下,凯特琳的父亲克里斯以凶手之名被逮捕,这个不幸让克里斯发狂,也让凯特琳搬离家乡。二十年后,建商买下那栋荒废的灯塔,凯特琳却发现建商陆续失踪,原来,祖父曾经在此留下一个家族秘密,而凯特琳唯有找出真相,才能阻止更多不幸的发生。
Video
ID : 1
Format : AVC
Format/Info : Advanced Video Codec
Format profile : [email protected]
Format settings, CABAC : Yes
Format settings, ReFrames : 4 frames
Codec ID : V_MPEG4/ISO/AVC
Duration : 1h 28mn
Bit rate : 9 313 Kbps
Width : 1 920 pixels
Height : 1 080 pixels
Display aspect ratio : 16:9
Frame rate mode : Constant
Frame rate : 23.976 (24000/1001) fps
Color space : YUV
Chroma subsampling : 4:2:0
Bit depth : 8 bits
Scan type : Progressive
Bits/(Pixel*Frame) : 0.187
Stream size : 5.78 GiB (91%)
Writing library : x264 core 116 r2019 9cc407d
Encoding settings : cabac=1 / ref=4 / deblock=1:0:0 / analyse=0x3:0x113 / me=umh / subme=7 / psy=1 / psy_rd=1.00:0.00 / mixed_ref=1 / me_range=16 / chroma_me=1 / trellis=1 / 8x8dct=1 / cqm=0 / deadzone=21,11 / fast_pskip=0 / chroma_qp_offset=-2 / threads=36 / sliced_threads=0 / nr=0 / decimate=1 / interlaced=0 / bluray_compat=0 / constrained_intra=0 / bframes=3 / b_pyramid=2 / b_adapt=1 / b_bias=0 / direct=1 / weightb=1 / open_gop=0 / weightp=2 / keyint=250 / keyint_min=23 / scenecut=40 / intra_refresh=0 / rc_lookahead=40 / rc=crf / mbtree=1 / crf=20.0 / qcomp=0.60 / qpmin=0 / qpmax=69 / qpstep=4 / ip_ratio=1.40 / aq=1:1.00
Language : English
Default : Yes
Forced : No

Audio
ID : 2
Format : DTS
Format/Info : Digital Theater Systems
Mode : 16
Format settings, Endianness : Big
Codec ID : A_DTS
Duration : 1h 28mn
Bit rate mode : Constant
Bit rate : 768 Kbps
Channel(s) : 2 channels
Channel positions : Front: L R
Sampling rate : 48.0 KHz
Frame rate : 93.750 fps (512 spf)
Bit depth : 24 bits
Compression mode : Lossy
Stream size : 488 MiB (7%)
Language : English
Default : No
Forced : No





1 个附件 售价 大小 下载 时间

Behind.The.Wall.2008.1080p.BluRay.x264.DTS-FGT.torrent 0 金币 64.46K 161 次 11天前

#1楼
发帖时间:2020-06-30 21:14:30   |   回复数:1
911degrees
隐世仙人♂
非常感谢,谢谢分享
11天前 #2楼
游客组