coor
一代宗师

[2013] [其他] [恐怖] [BD-1080P] 僵尸大屠杀 Zombie.Massacre.2013.1080p.BluRay.x264.DTS-FGT 7.12GB

-->



◎译  名 僵尸大屠杀 / Apocalypse Z
◎片  名 Zombie Massacre
◎年  代 2013
◎产  地 意大利 / 美国 / 德国 / 加拿大
◎类  别 恐怖
◎语  言 英语
◎上映日期 2013-07-01(英国) / 2013-08-06(美国)
◎IMDb评分 2.3/10 from 1683 users
◎IMDb链接 https://www.imdb.com/title/tt2081438
◎豆瓣评分 3.1/10 from 793 users
◎豆瓣链接 https://movie.douban.com/subject/6967859/
◎片  长 90分钟
◎导  演 Luca Boni / Marco Ristori
◎编  剧 Luca Boni / Marco Ristori
◎主  演 乌维·鲍尔 Uwe Boll
      Tara Cardinal
      迈克·米切尔 Mike Mitchell
      Jon Campling
      Christian Boeving
      迈克尔·西格尔 Michael Segal
      杰瑞·沙纳汉 Gerry Shanahan
      丹尼尔·维维安 Daniel Vivian


◎标  签 僵尸 | 丧尸 | 恐怖 | 丧尸片 | 美国 | 重口 | 惊悚 | 科幻

◎简  介

  美国政府秘密研制的生化武器发生故障,导致罗马尼亚某无名小镇被神秘病毒感染。当地居民全部化身毫无人性、嗜血如命的恐怖丧尸。他们所到之处惨不忍睹,尸横遍野。为了阻止丧失脱逃和病毒蔓延,美国政府计划炸毁该小镇。为此,因叛国和谋杀被捕的前军人杰克·斯通(Christian Boeving 饰)、“疯狗”约翰·麦克莱恩(Mike Mitchell 饰)、狙击手德拉甘·伊利克(Daniel Vivian 饰)和伊甸·静香(Tara Cardinal 饰)等身怀绝技的高手被作为雇佣兵召集起来,前往当地的核反应堆安放炸弹。
  为金钱、为自由、为了人类的未来。凶险非常的战斗,斯通所率领的敢死队杀入丧尸横行的绝地……
Video
ID : 1
Format : AVC
Format/Info : Advanced Video Codec
Format profile : [email protected]
Format settings, CABAC : No
Format settings, ReFrames : 2 frames
Codec ID : V_MPEG4/ISO/AVC
Duration : 1h 30mn
Bit rate : 9 519 Kbps
Nominal bit rate : 10 000 Kbps
Width : 1 920 pixels
Height : 800 pixels
Display aspect ratio : 2.40:1
Frame rate mode : Constant
Frame rate : 23.976 (24000/1001) fps
Color space : YUV
Chroma subsampling : 4:2:0
Bit depth : 8 bits
Scan type : Progressive
Bits/(Pixel*Frame) : 0.258
Stream size : 6.02 GiB (85%)
Writing library : x264 core 112
Encoding settings : cabac=0 / ref=1 / deblock=1:0:0 / analyse=0x1:0x111 / me=umh / subme=5 / psy=1 / psy_rd=0.00:0.00 / mixed_ref=0 / me_range=16 / chroma_me=1 / trellis=0 / 8x8dct=0 / cqm=0 / deadzone=21,11 / fast_pskip=0 / chroma_qp_offset=0 / threads=6 / sliced_threads=0 / nr=0 / decimate=1 / interlaced=0 / constrained_intra=0 / bframes=3 / b_pyramid=0 / b_adapt=1 / b_bias=0 / direct=1 / weightb=0 / open_gop=0 / weightp=0 / keyint=240 / keyint_min=23 / scenecut=40 / intra_refresh=0 / rc_lookahead=40 / rc=abr / mbtree=1 / bitrate=10000 / ratetol=1.0 / qcomp=0.60 / qpmin=3 / qpmax=51 / qpstep=4 / ip_ratio=1.40 / aq=1:1.00
Language : English
Default : Yes
Forced : No
Color range : Limited
Color primaries : BT.709
Transfer characteristics : BT.709
Matrix coefficients : BT.709

Audio
ID : 2
Format : DTS
Format/Info : Digital Theater Systems
Mode : 16
Format settings, Endianness : Big
Codec ID : A_DTS
Duration : 1h 30mn
Bit rate mode : Constant
Bit rate : 1 509 Kbps
Channel(s) : 6 channels
Channel positions : Front: L C R, Side: L R, LFE
Sampling rate : 48.0 KHz
Frame rate : 93.750 fps (512 spf)
Bit depth : 16 bits
Compression mode : Lossy
Stream size : 977 MiB (13%)
Language : English
Default : Yes
Forced : No

Menu
00:00:00.000 : en:Chapter 1
00:04:39.839 : en:Chapter 2
00:10:25.309 : en:Chapter 3
00:17:27.814 : en:Chapter 4
00:23:18.290 : en:Chapter 5
00:29:47.887 : en:Chapter 6
00:36:09.769 : en:Chapter 7
00:41:03.646 : en:Chapter 8
00:46:55.205 : en:Chapter 9
00:52:02.053 : en:Chapter 10
00:57:09.527 : en:Chapter 11
01:02:52.036 : en:Chapter 12
01:10:08.972 : en:Chapter 13
01:15:09.648 : en:Chapter 14
01:21:03.877 : en:Chapter 15
01:26:27.241 : en:Chapter 16
01:30:32.486 : en:Chapter 17





1 个附件 售价 大小 下载 时间

Zombie.Massacre.2013.1080p.BluRay.x264.DTS-FGT.torrent 0 金币 71.76K 392 次 12天前

#1楼
发帖时间:2020-06-30 12:09:41   |   回复数:1
911degrees
隐世仙人♂
非常感谢,谢谢分享
11天前 #2楼
游客组