coor
一代宗师

[2013] [其他] [惊悚] [BD-1080P] 迪亚特洛夫事件 Devils.Pass.aka.The.Dyatlov.Pass.Incident.2013.1080p.BluRay.x264.DD5.1-F

-->



◎译  名 迪亚特洛夫事件 / Devil's Pass / Тайна перевала Дятлова / 死亡之山 / 诡山(台) / 达洛夫事件
◎片  名 The Dyatlov Pass Incident
◎年  代 2013
◎产  地 美国 / 英国 / 俄罗斯
◎类  别 惊悚 / 恐怖
◎语  言 英语
◎上映日期 2013-02-28(俄罗斯)
◎IMDb评分 5.7/10 from 22291 users
◎IMDb链接 https://www.imdb.com/title/tt1905040
◎豆瓣评分 6.9/10 from 11543 users
◎豆瓣链接 https://movie.douban.com/subject/24289477/
◎片  长 100分钟
◎导  演 雷尼·哈林 Renny Harlin
◎编  剧 Vikram Weet
◎主  演 吉玛·阿金森 Gemma Atkinson
      Matt Stokoe
      Richard Reid
      Luke Albright
      Holly Goss


◎标  签 惊悚 | 伪纪录 | 恐怖 | 悬疑 | 科幻 | 美国 | 时空穿梭 | 2013

◎简  介

  1959年,九名俄罗斯登山爱好者在乌拉尔山脉附近失踪,当他们再次被人发现时却早已死亡,死前仿佛受到巨大的惊吓以及非人力的强大外力的袭击,这就是著名的迪亚特洛夫山径事件,时至今日仍然是一个未解之谜。远在美国俄勒冈州的女大学生霍莉·金(Holly Goss 饰)对该事件深深着迷,在获得基金支持后,她联系到电影系学生詹森·戴伊(Matt Stokoe 饰)以及其他三名爱好者,决定前往当年的事发地点拍摄一部纪录片,试图解开悬而未决的谜题。最初的旅程快乐有如度假一般,但随着他们逐渐接近目的地,各种匪夷所思的事件接连发生,队员的心头蒙上不祥的阴影。
  半个世纪前的噩梦即将在他们身上重现……
Video
ID : 1
Format : AVC
Format/Info : Advanced Video Codec
Format profile : [email protected]
Format settings, CABAC : Yes
Format settings, ReFrames : 4 frames
Codec ID : V_MPEG4/ISO/AVC
Duration : 1h 40mn
Bit rate : 11.4 Mbps
Width : 1 920 pixels
Height : 1 036 pixels
Display aspect ratio : 1.85:1
Frame rate mode : Constant
Frame rate : 23.976 (24000/1001) fps
Color space : YUV
Chroma subsampling : 4:2:0
Bit depth : 8 bits
Scan type : Progressive
Bits/(Pixel*Frame) : 0.239
Stream size : 7.98 GiB (93%)
Writing library : x264 core 142 r2431+42 c69a006 tMod [[email protected] X86_64]
Encoding settings : cabac=1 / ref=4 / deblock=1:-3:-3 / analyse=0x3:0x133 / me=umh / subme=11 / psy=1 / fade_compensate=0.00 / psy_rd=1.15:0.03 / mixed_ref=1 / me_range=36 / chroma_me=1 / trellis=2 / 8x8dct=1 / cqm=0 / deadzone=21,11 / fast_pskip=0 / chroma_qp_offset=-3 / threads=12 / lookahead_threads=3 / sliced_threads=0 / nr=0 / decimate=0 / interlaced=0 / bluray_compat=0 / constrained_intra=0 / fgo=0 / bframes=10 / b_pyramid=2 / b_adapt=2 / b_bias=0 / direct=3 / weightb=1 / open_gop=0 / weightp=2 / keyint=250 / keyint_min=23 / scenecut=40 / intra_refresh=0 / rc_lookahead=120 / rc=crf / mbtree=0 / crf=16.5000 / qcomp=0.70 / qpmin=0:0:0 / qpmax=69:69:69 / qpstep=4 / vbv_maxrate=62500 / vbv_bufsize=78125 / crf_max=0.0 / nal_hrd=none / filler=0 / ip_ratio=1.40 / pb_ratio=1.30 / aq=4:0.80 / aq-sensitivity=10.00 / aq-factor=1.00:1.00:1.00 / aq2=0 / aq3=0
Language : English
Default : Yes
Forced : No

Audio
ID : 2
Format : AC-3
Format/Info : Audio Coding 3
Mode extension : CM (complete main)
Format settings, Endianness : Big
Codec ID : A_AC3
Duration : 1h 40mn
Bit rate mode : Constant
Bit rate : 640 Kbps
Channel(s) : 6 channels
Channel positions : Front: L C R, Side: L R, LFE
Sampling rate : 48.0 KHz
Frame rate : 31.250 fps (1536 spf)
Compression mode : Lossy
Stream size : 459 MiB (5%)
Language : English
Default : Yes
Forced : No

Menu
00:00:00.000 : en:Chapter 1
00:00:00.333 : en:Chapter 2
00:01:39.166 : en:Chapter 3
00:16:14.416 : en:Chapter 4
00:29:49.291 : en:Chapter 5
00:41:49.750 : en:Chapter 6
00:54:19.625 : en:Chapter 7
01:07:26.458 : en:Chapter 8
01:19:31.166 : en:Chapter 9
01:30:32.750 : en:Chapter 10





1 个附件 售价 大小 下载 时间

Devils.Pass.aka.The.Dyatlov.Pass.Incident.2013.1080p.BluRay.x264.DD5.1-FGT.torrent 0 金币 86.72K 483 次 12天前

#1楼
发帖时间:2020-06-30 11:25:24   |   回复数:1
911degrees
隐世仙人♂
非常感谢,谢谢分享
11天前 #2楼
游客组