coor
一代宗师

[2012] [其他] [喜剧] [BD-1080P] 乡村小屋/求婚變奏曲 Cottage.Country.2013.UNRATED.1080p.BluRay.x264.DTS-FGT 6.32GB

-->



◎译  名 乡村小屋 / 求婚變奏曲
◎片  名 Cottage Country
◎年  代 2012
◎产  地 加拿大
◎类  别 喜剧 / 恐怖 / 犯罪
◎语  言 英语
◎IMDb评分 5.6/10 from 3876 users
◎IMDb链接 https://www.imdb.com/title/tt2072933
◎豆瓣评分 0/10 from 0 users
◎豆瓣链接 https://movie.douban.com/subject/6959221/
◎导  演 Peter Wellington
◎编  剧 Jeremy Boxen
◎主  演 露茜·彭奇 Lucy Punch
      玛琳·阿克曼 Malin Akerman
      泰勒·莱伯恩 Tyler Labine
      Benjamin Ayres


◎标  签 加拿大 | 剧情 | 美国 | 搞笑 | 感动 | 喜剧 | 2013 | 黑暗世界

◎简  介

  When a man accidentally kills his brother with an ax, his fiancée is determined not to let even murder stand in the way of their happiness.

◎获奖情况

  第34届加拿大吉尼奖(2014)
  最佳化妆(提名)
Video
ID : 1
Format : AVC
Format/Info : Advanced Video Codec
Format profile : [email protected]
Format settings, CABAC : Yes
Format settings, ReFrames : 4 frames
Codec ID : V_MPEG4/ISO/AVC
Duration : 1 h 31 min
Bit rate : 8 201 kb/s
Width : 1 920 pixels
Height : 1 080 pixels
Display aspect ratio : 16:9
Frame rate mode : Constant
Frame rate : 24.000 FPS
Color space : YUV
Chroma subsampling : 4:2:0
Bit depth : 8 bits
Scan type : Progressive
Bits/(Pixel*Frame) : 0.165
Stream size : 5.23 GiB (83%)
Writing library : x264 core 140 r2377 1ca7bb9
Encoding settings : cabac=1 / ref=4 / deblock=1:-1:-1 / analyse=0x3:0x133 / me=umh / subme=7 / psy=1 / psy_rd=1.00:0.15 / mixed_ref=1 / me_range=16 / chroma_me=1 / trellis=1 / 8x8dct=1 / cqm=0 / deadzone=21,11 / fast_pskip=0 / chroma_qp_offset=-3 / threads=12 / lookahead_threads=2 / sliced_threads=0 / nr=0 / decimate=1 / interlaced=0 / bluray_compat=0 / constrained_intra=0 / bframes=3 / b_pyramid=2 / b_adapt=1 / b_bias=0 / direct=1 / weightb=1 / open_gop=0 / weightp=2 / keyint=250 / keyint_min=24 / scenecut=40 / intra_refresh=0 / rc_lookahead=40 / rc=crf / mbtree=1 / crf=20.0 / qcomp=0.60 / qpmin=0 / qpmax=69 / qpstep=4 / ip_ratio=1.40 / aq=1:1.00
Language : English
Default : Yes
Forced : No

Audio
ID : 2
Format : DTS
Format/Info : Digital Theater Systems
Mode : 16
Format settings, Endianness : Big
Codec ID : A_DTS
Duration : 1 h 31 min
Bit rate mode : Constant
Bit rate : 1 509 kb/s
Channel(s) : 6 channels
Channel positions : Front: L C R, Side: L R, LFE
Sampling rate : 48.0 kHz
Frame rate : 93.750 FPS (512 spf)
Bit depth : 24 bits
Compression mode : Lossy
Stream size : 986 MiB (15%)
Language : English
Default : No
Forced : No

Menu
00:00:00.000 : en:00:00:00.000
00:03:52.792 : en:00:03:52.792
00:09:12.583 : en:00:09:12.583
00:15:45.250 : en:00:15:45.250
00:22:01.625 : en:00:22:01.625
00:27:13.708 : en:00:27:13.708
00:32:15.125 : en:00:32:15.125
00:37:54.625 : en:00:37:54.625
00:42:15.125 : en:00:42:15.125
00:48:54.417 : en:00:48:54.417
00:54:52.667 : en:00:54:52.667
01:00:24.125 : en:01:00:24.125
01:05:52.167 : en:01:05:52.167
01:12:26.167 : en:01:12:26.167
01:18:34.875 : en:01:18:34.875
01:24:21.833 : en:01:24:21.833





1 个附件 售价 大小 下载 时间

Cottage.Country.2013.UNRATED.1080p.BluRay.x264.DTS-FGT.torrent 0 金币 63.83K 217 次 12天前

#1楼
发帖时间:2020-06-30 11:15:15   |   回复数:1
911degrees
隐世仙人♂
非常感谢,谢谢分享
11天前 #2楼
游客组