coor
一代宗师

[更 早] [欧美] [恐怖] [WEB-1080P] 仙女2 Toothfairy.2.2020.1080p.WEB-DL.DD5.1.H264-FGT 3.19GB

-->




◎译  名 仙女2 / Toothfairy 2
◎片  名 Tooth Fairy: The Root of Evil
◎年  代 2020
◎产  地 美国
◎类  别 恐怖
◎语  言 英语
◎上映日期 2020-07-05(美国)
◎IMDb链接 https://www.imdb.com/title/tt11082246
◎豆瓣评分 0/10 from 0 users
◎豆瓣链接 https://movie.douban.com/subject/34979217/
◎导  演 Louisa Warren
◎编  剧 Tom Jolliffe
◎主  演 Jake Watkins
      Katie McKenna,
      Chelsea Greenwood


◎简  介

  The Tooth Fairy is back. 15 years after the events of the first movie, Corey, now grown up but mentally scarred has gone to a class reunion. However, the Tooth Fairy is back, and this time - You better have flossed properly.
Video
ID : 1
Format : AVC
Format/Info : Advanced Video Codec
Format profile : [email protected]
Format settings : CABAC / 5 Ref Frames
Format settings, CABAC : Yes
Format settings, Reference frames : 5 frames
Codec ID : V_MPEG4/ISO/AVC
Duration : 1 h 31 min
Bit rate : 4 598 kb/s
Width : 1 916 pixels
Height : 812 pixels
Display aspect ratio : 2.35:1
Frame rate mode : Constant
Frame rate : 24.000 FPS
Color space : YUV
Chroma subsampling : 4:2:0
Bit depth : 8 bits
Scan type : Progressive
Bits/(Pixel*Frame) : 0.123
Stream size : 2.94 GiB (92%)
Title : Toothfairy.2.2020.1080p.WEB-DL.DD5.1.H264-FGT
Language : English
Default : Yes
Forced : No
Color range : Limited
Color primaries : BT.709
Transfer characteristics : BT.709
Matrix coefficients : BT.709

Audio
ID : 2
Format : AC-3
Format/Info : Audio Coding 3
Commercial name : Dolby Digital
Codec ID : A_AC3
Duration : 1 h 31 min
Bit rate mode : Constant
Bit rate : 384 kb/s
Channel(s) : 6 channels
Channel layout : L R C LFE Ls Rs
Sampling rate : 48.0 kHz
Frame rate : 31.250 FPS (1536 SPF)
Bit depth : 16 bits
Compression mode : Lossy
Stream size : 251 MiB (8%)
Title : Toothfairy.2.2020.1080p.WEB-DL.DD5.1.H264-FGT
Language : English
Service kind : Complete Main
Default : Yes
Forced : No

Menu
00:00:00.000 : en:Chapter 1
00:20:28.583 : en:Chapter 2
00:45:16.373 : en:Chapter 3
01:03:24.331 : en:Chapter 4
01:28:46.414 : en:Chapter 5





#1楼
发帖时间:2020-05-25 19:06:30   |   回复数:1
911degrees
隐世仙人♂
非常感谢,谢谢分享
1月前 #2楼
游客组