coor
一代宗师

[更 早] [其他] [剧情] [BD-1080P] 欲望号快车/撞车 Crash.1996.UNRATED.1080p.BluRay.X264-AMIABLE 14.44GB

-->

帖子完整标题:欲望号快车/撞车 Crash.1996.UNRATED.1080p.BluRay.X264-AMIABLE 14.44GB




◎译  名 欲望号快车 / 撞车 / 超速性追缉(台)
◎片  名 Crash
◎年  代 1996
◎产  地 加拿大 / 英国
◎类  别 剧情
◎语  言 英语 / 瑞典语
◎上映日期 1996-05-17(戛纳电影节) / 1996-10-04(加拿大)
◎IMDb评分 6.4/10 from 49760 users
◎IMDb链接 https://www.imdb.com/title/tt0115964
◎豆瓣评分 6.9/10 from 8212 users
◎豆瓣链接 https://movie.douban.com/subject/1292682/
◎片  长 100分钟
◎导  演 大卫·柯南伯格 David Cronenberg
◎编  剧 J·G·巴拉德 J.G. Ballard / 大卫·柯南伯格 David Cronenberg
◎主  演 詹姆斯·斯派德 James Spader
      霍利·亨特 Holly Hunter
      伊莱亚斯·科泰斯 Elias Koteas
      黛博拉·卡拉·安格 Deborah Kara Unger
      罗姗娜·阿奎特 Rosanna Arquette
      彼得·麦克内尔 Peter MacNeill
      Yolande Julian
      Cheryl Swarts
      朱达·卡茨 Judah Katz
      妮基·瓜达尼 Nicky Guadagni
      Ronn Sarosiak
      博伊德·班克斯 Boyd Banks
      Markus Parilo
      Alice Poon
      John Stoneham Jr.
      大卫·柯南伯格 David Cronenberg
      乔丹 Jordan


◎标  签 情色 | 加拿大 | 1996 | 剧情 | 英国 | 美国 | 惊悚 | 人性

◎简  介

  电影制片人詹姆斯(James Spader 饰)沉迷于性事,在女友凯瑟琳之外尚有不少情人。一次开车回家的路上他与另一辆车相撞,詹姆斯腿部重伤,对面车中的夫妻两人则丈夫死亡妻子海伦(Holly Hunter 饰)负伤,詹姆斯在报废车场偶遇海伦,两人由此结识,不久海伦带他参观了由医生沃甘主持的撞车活动,这些爱好者热衷用真实的撞车还原某些事故,詹姆斯进入了一个匪夷所思的圈子。沃甘身份神秘,宣扬撞车是释放自我的有效途径,为此不惜以身犯险。随着詹姆斯与沃甘的交往不断加深,两人终于在车上发生了关系,而随后沃甘驾车撞击詹姆斯与凯瑟琳却致使自己死亡。詹姆斯大难不死后又驾驶者一辆废旧汽车撞向了凯瑟琳……
  本片获1996年加拿大吉尼奖导演奖等多项褒奖。

◎获奖情况

  第49届戛纳电影节(1996)
  主竞赛单元 金棕榈奖(提名) 大卫·柯南伯格
  主竞赛单元 评审团特别奖 大卫·柯南伯格
Video
ID : 1
Format : AVC
Format/Info : Advanced Video Codec
Format profile : [email protected]
Format settings : CABAC / 4 Ref Frames
Format settings, CABAC : Yes
Format settings, Reference frames : 4 frames
Codec ID : V_MPEG4/ISO/AVC
Duration : 1 h 39 min
Bit rate : 18.6 Mb/s
Width : 1 800 pixels
Height : 1 080 pixels
Display aspect ratio : 5:3
Frame rate mode : Constant
Frame rate : 23.976 (24000/1001/189150) FPS
Color space : YUV
Chroma subsampling : 4:2:0
Bit depth : 8 bits
Scan type : Progressive
Bits/(Pixel*Frame) : 0.399
Stream size : 13.0 GiB (90%)
Writing library : x264 core 160 r3000 33f9e14
Encoding settings : cabac=1 / ref=4 / deblock=1:-3:-3 / analyse=0x3:0x133 / me=umh / subme=9 / psy=1 / psy_rd=1.12:0.00 / mixed_ref=1 / me_range=32 / chroma_me=1 / trellis=2 / 8x8dct=1 / cqm=0 / deadzone=21,11 / fast_pskip=0 / chroma_qp_offset=-2 / threads=34 / lookahead_threads=2 / sliced_threads=0 / nr=0 / decimate=0 / interlaced=0 / bluray_compat=0 / constrained_intra=0 / bframes=3 / b_pyramid=2 / b_adapt=2 / b_bias=0 / direct=3 / weightb=1 / open_gop=0 / weightp=2 / keyint=250 / keyint_min=23 / scenecut=40 / intra_refresh=0 / rc=crf / mbtree=0 / crf=21.7 / qcomp=0.60 / qpmin=0 / qpmax=69 / qpstep=4 / ip_ratio=1.40 / pb_ratio=1.30 / aq=3:0.70
Default : Yes
Forced : No
Color range : Limited
Matrix coefficients : BT.709

Audio
ID : 2
Format : DTS XLL
Format/Info : Digital Theater Systems
Commercial name : DTS-HD Master Audio
Codec ID : A_DTS
Duration : 1 h 39 min
Bit rate mode : Variable
Bit rate : 2 090 kb/s
Channel(s) : 6 channels
Channel layout : C L R Ls Rs LFE
Sampling rate : 48.0 kHz
Frame rate : 93.750 FPS (512 SPF)
Bit depth : 16 bits
Compression mode : Lossless
Stream size : 1.46 GiB (10%)
Title : DTS-HD MA 5.1
Language : English
Default : Yes
Forced : No

Text #1
ID : 3
Format : UTF-8
Codec ID : S_TEXT/UTF8
Codec ID/Info : UTF-8 Plain Text
Duration : 1 h 30 min
Bit rate : 21 b/s
Count of elements : 434
Stream size : 14.1 KiB (0%)
Title : Full SRT
Language : English
Default : No
Forced : No

Text #2
ID : 4
Format : PGS
Muxing mode : zlib
Codec ID : S_HDMV/PGS
Codec ID/Info : Picture based subtitle format used on BDs/HD-DVDs
Duration : 1 h 30 min
Bit rate : 13.9 kb/s
Count of elements : 868
Stream size : 8.98 MiB (0%)
Title : Full
Language : English
Default : No
Forced : No

Text #3
ID : 5
Format : PGS
Muxing mode : zlib
Codec ID : S_HDMV/PGS
Codec ID/Info : Picture based subtitle format used on BDs/HD-DVDs
Duration : 1 h 30 min
Bit rate : 16.0 kb/s
Count of elements : 814
Stream size : 10.3 MiB (0%)
Title : German
Language : German
Default : No
Forced : No

Menu
00:00:00.000 : en:Chapter 01
00:02:47.167 : en:Chapter 02
00:06:46.489 : en:Chapter 03
00:10:59.659 : en:Chapter 04
00:16:07.967 : en:Chapter 05
00:20:09.208 : en:Chapter 06
00:25:22.604 : en:Chapter 07
00:33:53.031 : en:Chapter 08
00:36:54.212 : en:Chapter 09
00:40:40.438 : en:Chapter 10
00:50:50.047 : en:Chapter 11
00:58:03.480 : en:Chapter 12
01:04:38.875 : en:Chapter 13
01:11:25.281 : en:Chapter 14
01:17:03.619 : en:Chapter 15
01:24:38.073 : en:Chapter 16
01:30:27.422 : en:Chapter 17
01:36:13.768 : en:Chapter 18





1 个附件 售价 大小 下载 时间

Crash.1996.UNRATED.1080p.BluRay.X264-AMIABLE.torrent 0 金币 72.89K 1897 次 3天前

#1楼
发帖时间:2020-05-23 17:48:49   |   回复数:3
911degrees
隐世仙人♂
非常感谢,谢谢分享
3天前 #2楼
PCHUN
武林高手
Thanks for sharing
3天前 #3楼
kola13
一派掌门
感谢分享
3天前 #4楼
游客组