coor
一代宗师

[更 早] [其他] [剧情] [BD-4K] 欲望号快车/撞车 Crash.1996.UNRATED.2160p.BluRay.x265.10bit.SDR.DTS-HD.MA.5.1-SWTYBLZ 49

-->

帖子完整标题:欲望号快车/撞车 Crash.1996.UNRATED.2160p.BluRay.x265.10bit.SDR.DTS-HD.MA.5.1-SWTYBLZ 49.17GB




◎译  名 欲望号快车 / 撞车 / 超速性追缉(台)
◎片  名 Crash
◎年  代 1996
◎产  地 加拿大 / 英国
◎类  别 剧情
◎语  言 英语 / 瑞典语
◎上映日期 1996-05-17(戛纳电影节) / 1996-10-04(加拿大)
◎IMDb评分 6.4/10 from 49760 users
◎IMDb链接 https://www.imdb.com/title/tt0115964
◎豆瓣评分 6.9/10 from 8212 users
◎豆瓣链接 https://movie.douban.com/subject/1292682/
◎片  长 100分钟
◎导  演 大卫·柯南伯格 David Cronenberg
◎编  剧 J·G·巴拉德 J.G. Ballard / 大卫·柯南伯格 David Cronenberg
◎主  演 詹姆斯·斯派德 James Spader
      霍利·亨特 Holly Hunter
      伊莱亚斯·科泰斯 Elias Koteas
      黛博拉·卡拉·安格 Deborah Kara Unger
      罗姗娜·阿奎特 Rosanna Arquette
      彼得·麦克内尔 Peter MacNeill
      Yolande Julian
      Cheryl Swarts
      朱达·卡茨 Judah Katz
      妮基·瓜达尼 Nicky Guadagni
      Ronn Sarosiak
      博伊德·班克斯 Boyd Banks
      Markus Parilo
      Alice Poon
      John Stoneham Jr.
      大卫·柯南伯格 David Cronenberg
      乔丹 Jordan


◎标  签 情色 | 加拿大 | 1996 | 剧情 | 英国 | 美国 | 惊悚 | 人性

◎简  介

  电影制片人詹姆斯(James Spader 饰)沉迷于性事,在女友凯瑟琳之外尚有不少情人。一次开车回家的路上他与另一辆车相撞,詹姆斯腿部重伤,对面车中的夫妻两人则丈夫死亡妻子海伦(Holly Hunter 饰)负伤,詹姆斯在报废车场偶遇海伦,两人由此结识,不久海伦带他参观了由医生沃甘主持的撞车活动,这些爱好者热衷用真实的撞车还原某些事故,詹姆斯进入了一个匪夷所思的圈子。沃甘身份神秘,宣扬撞车是释放自我的有效途径,为此不惜以身犯险。随着詹姆斯与沃甘的交往不断加深,两人终于在车上发生了关系,而随后沃甘驾车撞击詹姆斯与凯瑟琳却致使自己死亡。詹姆斯大难不死后又驾驶者一辆废旧汽车撞向了凯瑟琳……
  本片获1996年加拿大吉尼奖导演奖等多项褒奖。

◎获奖情况

  第49届戛纳电影节(1996)
  主竞赛单元 金棕榈奖(提名) 大卫·柯南伯格
  主竞赛单元 评审团特别奖 大卫·柯南伯格
Video
ID : 1
Format : HEVC
Format/Info : High Efficiency Video Coding
Format profile : Main [email protected]@High
Codec ID : V_MPEGH/ISO/HEVC
Duration : 1 h 39 min
Bit rate : 67.4 Mb/s
Width : 3 600 pixels
Height : 2 160 pixels
Display aspect ratio : 5:3
Frame rate mode : Constant
Frame rate : 23.976 (24000/1001/189150) FPS
Color space : YUV
Chroma subsampling : 4:2:0
Bit depth : 10 bits
Bits/(Pixel*Frame) : 0.362
Stream size : 47.0 GiB (96%)
Title : Crash.1996.2160p.BluRay.x265.10bit.SDR.DTS-HD.MA.5.1-SWTYBLZ
Writing library : x265 3.0ed72af837053:[Windows][GCC 8.2.0][64 bit] 10bit
Encoding settings : cpuid=1111039 / frame-threads=6 / numa-pools=40 / wpp / no-pmode / no-pme / no-psnr / no-ssim / log-level=2 / input-csp=1 / input-res=3600x2160 / interlace=0 / total-frames=143602 / level-idc=51 / high-tier=1 / uhd-bd=0 / ref=3 / no-allow-non-conformance / repeat-headers / annexb / aud / hrd / info / hash=0 / no-temporal-layers / no-open-gop / min-keyint=1 / keyint=24 / gop-lookahead=0 / bframes=4 / b-adapt=2 / b-pyramid / bframe-bias=0 / rc-lookahead=25 / lookahead-slices=4 / scenecut=40 / radl=0 / no-splice / no-intra-refresh / ctu=64 / min-cu-size=8 / no-rect / no-amp / max-tu-size=32 / tu-inter-depth=1 / tu-intra-depth=1 / limit-tu=0 / rdoq-level=0 / dynamic-rd=0.00 / no-ssim-rd / signhide / no-tskip / nr-intra=0 / nr-inter=0 / no-constrained-intra / strong-intra-smoothing / max-merge=2 / limit-refs=3 / no-limit-modes / me=1 / subme=2 / merange=57 / temporal-mvp / weightp / no-weightb / no-analyze-src-pics / deblock=0:0 / no-sao / no-sao-non-deblock / rd=3 / no-early-skip / rskip / no-fast-intra / no-tskip-fast / no-cu-lossless / no-b-intra / no-splitrd-skip / rdpenalty=0 / psy-rd=2.00 / psy-rdoq=0.00 / no-rd-refine / no-lossless / cbqpoffs=0 / crqpoffs=0 / rc=crf / crf=19.0 / qcomp=0.60 / qpstep=4 / stats-write=0 / stats-read=0 / vbv-maxrate=160000 / vbv-bufsize=160000 / vbv-init=0.9 / crf-max=0.0 / crf-min=0.0 / ipratio=1.40 / pbratio=1.30 / aq-mode=1 / aq-strength=1.00 / cutree / zone-count=0 / no-strict-cbr / qg-size=32 / no-rc-grain / qpmax=69 / qpmin=0 / no-const-vbv / sar=1 / overscan=0 / videoformat=5 / range=0 / colorprim=2 / transfer=2 / colormatrix=2 / chromaloc=0 / display-window=0 / max-cll=0,0 / min-luma=0 / max-luma=1023 / log2-max-poc-lsb=8 / vui-timing-info / vui-hrd-info / slices=1 / opt-qp-pps / opt-ref-list-length-pps / no-multi-pass-opt-rps / scenecut-bias=0.05 / no-opt-cu-delta-qp / no-aq-motion / no-hdr / no-hdr-opt / no-dhdr10-opt / no-idr-recovery-sei / analysis-reuse-level=5 / scale-factor=0 / refine-intra=0 / refine-inter=0 / refine-mv=0 / refine-ctu-distortion=0 / no-limit-sao / ctu-info=0 / no-lowpass-dct / refine-analysis-type=0 / copy-pic=1 / max-ausize-factor=1.0 / no-dynamic-refine / no-single-sei / no-hevc-aq / qp-adaptation-range=1.00
Default : Yes
Forced : No

Audio #1
ID : 2
Format : DTS XLL
Format/Info : Digital Theater Systems
Commercial name : DTS-HD Master Audio
Codec ID : A_DTS
Duration : 1 h 39 min
Bit rate mode : Variable
Bit rate : 2 090 kb/s
Channel(s) : 6 channels
Channel layout : C L R Ls Rs LFE
Sampling rate : 48.0 kHz
Frame rate : 93.750 FPS (512 SPF)
Bit depth : 16 bits
Compression mode : Lossless
Stream size : 1.46 GiB (3%)
Title : Crash.1996.2160p.BluRay.x265.10bit.SDR.DTS-HD.MA.5.1-SWTYBLZ
Language : English
Default : Yes
Forced : No

Audio #2
ID : 3
Format : AC-3
Format/Info : Audio Coding 3
Commercial name : Dolby Digital
Codec ID : A_AC3
Duration : 1 h 39 min
Bit rate mode : Constant
Bit rate : 640 kb/s
Channel(s) : 6 channels
Channel layout : L R C LFE Ls Rs
Sampling rate : 48.0 kHz
Frame rate : 31.250 FPS (1536 SPF)
Bit depth : 16 bits
Compression mode : Lossy
Stream size : 457 MiB (1%)
Title : Crash.1996.2160p.BluRay.x265.10bit.SDR.DTS-HD.MA.5.1-SWTYBLZ
Language : English
Service kind : Complete Main
Default : No
Forced : No

Text #1
ID : 4
Format : UTF-8
Codec ID : S_TEXT/UTF8
Codec ID/Info : UTF-8 Plain Text
Duration : 1 h 30 min
Bit rate : 21 b/s
Count of elements : 433
Stream size : 14.0 KiB (0%)
Title : English-SRT
Language : English
Default : Yes
Forced : No

Text #2
ID : 5
Format : PGS
Muxing mode : zlib
Codec ID : S_HDMV/PGS
Codec ID/Info : Picture based subtitle format used on BDs/HD-DVDs
Duration : 1 h 30 min
Bit rate : 13.9 kb/s
Count of elements : 868
Stream size : 8.98 MiB (0%)
Title : English-PGS
Language : English
Default : No
Forced : No

Text #3
ID : 6
Format : PGS
Muxing mode : zlib
Codec ID : S_HDMV/PGS
Codec ID/Info : Picture based subtitle format used on BDs/HD-DVDs
Duration : 1 h 30 min
Bit rate : 16.0 kb/s
Count of elements : 814
Stream size : 10.3 MiB (0%)
Title : German-PGS
Language : German
Default : No
Forced : No

Menu
00:00:00.000 : en:Logos/Opening Credits
00:02:21.892 : en:The Ballards
00:06:36.313 : en:Fertile Collision
00:08:19.207 : en:Bedside Manner
00:14:51.015 : en:Ballard 435
00:20:08.749 : en:The Good Doctor
00:25:23.647 : en:Little Bastard
00:32:34.744 : en:Aftermath
00:34:05.168 : en:Nerve Center
00:40:13.870 : en:867 VPD
00:43:04.707 : en:Ménage à trois
00:48:22.108 : en:The Seagraves At Home
00:50:49.088 : en:Benevolent Psychopathology
00:57:03.879 : en:The Dog Is Brilliant
01:04:35.205 : en:Carwash
01:09:13.983 : en:Tender Bruises
01:11:21.110 : en:Soft Sell
01:16:19.325 : en:Full Throttle
01:23:03.645 : en:Nocturnes
01:29:49.884 : en:\"Maybe The Next One, Darling\"
01:36:13.351 : en:End Credits





1 个附件 售价 大小 下载 时间

Crash.1996.UNRATED.2160p.BluRay.x265.10bit.SDR.DTS-HD.MA.5.1-SWTYBLZ.torrent 0 金币 123.53K 371 次 4天前

#1楼
发帖时间:2020-05-23 16:18:18   |   回复数:1
911degrees
隐世仙人♂
非常感谢,谢谢分享
3天前 #2楼
游客组