coor
一代宗师

[更 早] [日本] [剧情] [BD-1080P] 再造人卡辛 Casshern.2004.1080p.BluRay.x264-aBD 10.93GB

-->

帖子完整标题:再造人卡辛 Casshern.2004.1080p.BluRay.x264-aBD 10.93GB




◎译  名 再造人卡辛 / キャシャーン / 人造人 / 再造卡辛
◎片  名 CASSHERN
◎年  代 2004
◎产  地 日本
◎类  别 剧情 / 动作 / 科幻 / 冒险
◎语  言 日语
◎上映日期 2004-04-24
◎IMDb评分 6.1/10 from 12939 users
◎IMDb链接 https://www.imdb.com/title/tt0405821
◎豆瓣评分 5.9/10 from 1096 users
◎豆瓣链接 https://movie.douban.com/subject/1452121/
◎片  长 142 分钟
◎导  演 纪里谷和明
◎编  剧 纪里谷和明 Kazuaki Kiriya / 菅正太郎 Shotaro Suga / 佐藤大 Dai Sato / Tatsuo Yoshida
◎主  演 伊势谷友介
      麻生久美子
      寺尾聪
      桶口可南子
      西岛秀俊
      寺岛进
      伊藤淳史 Atsushi It?
      及川光博 Mitsuhiro Oikawa
      宫迫博之 Hiroyuki Miyasako
      要润 Jun Kaname
      佐田真由美 Mayumi Sada
      鹤田真由 Mayu Tsuruta
      凉 Ry?
      森口瑤子 Y?ko Moriguchi
      小日向文世 Fumiyo Kohinata
      玉山铁二 Tetsuji Tamayama
      三桥达也 Tatsuya Mihashi
      大泷秀治 Hideji ?taki
      纳谷悟郎 Gor? Naya
      佐藤未来 Miku Sat?
      森迫永依 Ei Morisako
      唐泽寿明 Toshiaki Karasawa


◎标  签 日本 | 科幻 | 日本电影 | 麻生久美子 | 伊勢谷友介 | 西岛秀俊 | 2004 | 电影

◎简  介

  剧情简介:
   这是一部描绘非线型历史的神话故事。
   人类大战持续了将近50年,世界由此分化为大亚细亚连邦共和国和欧共体两大阵营。持久战结束后,大亚细亚连邦共和国终于取得了胜利,并统治了欧洲和亚洲部分大陆,但战利品并不可观,除了土地的荒废,人心的慌乱外,还残留了很多战争后遗症。比如一些在战场上使用过的杀伤性化学武器、细菌武器、核武器等等。
   这一情形告诉我们拯救人类、拯救社会、拯救世界刻不容缓,人类处于即将崩溃的状态。怎样去面对这一切?怎样去寻找重生的道路?社会呼唤有志之士勇敢地战出来给这个被战争荒废了世界寻找一个公道。在这样危急的时刻,东博士提倡“完整地制造出人类所有器官的新造细胞”理论,这一理论在学术会上得到了认可。东博士的爱妻绿已久病卧床不起,为了把妻子从死神手中夺回来,东博士也必须完成这个研究。但社会保健部门从研究初期开始就企图独吞这一成果,为了顾全大局东博士在不断让步的情况下,着手开始这项研究。在东博士的呕心沥血的研究下,新造人类终于诞生。但原本是以拯救人类为目的制造的“新造细胞”到头来却于人类为敌,把人类赶进血的世界……
Video
ID : 1
Format : AVC
Format/Info : Advanced Video Codec
Format profile : [email protected]
Format settings : CABAC / 5 Ref Frames
Format settings, CABAC : Yes
Format settings, Reference frames : 5 frames
Codec ID : V_MPEG4/ISO/AVC
Duration : 2 h 16 min
Bit rate : 9 954 kb/s
Width : 1 920 pixels
Height : 768 pixels
Display aspect ratio : 2.500
Frame rate mode : Constant
Frame rate : 25.000 FPS
Color space : YUV
Chroma subsampling : 4:2:0
Bit depth : 8 bits
Scan type : Progressive
Bits/(Pixel*Frame) : 0.270
Stream size : 9.49 GiB (87%)
Writing library : x264 core 104 r1698 c41b8f0
Encoding settings : cabac=1 / ref=5 / deblock=1:-1:-1 / analyse=0x3:0x113 / me=umh / subme=7 / psy=1 / psy_rd=1.00:0.00 / mixed_ref=1 / me_range=16 / chroma_me=1 / trellis=1 / 8x8dct=1 / cqm=0 / deadzone=21,11 / fast_pskip=1 / chroma_qp_offset=-2 / threads=6 / sliced_threads=0 / nr=0 / decimate=1 / interlaced=0 / constrained_intra=0 / bframes=3 / b_pyramid=2 / b_adapt=2 / b_bias=0 / direct=3 / weightb=1 / open_gop=0 / weightp=2 / keyint=250 / keyint_min=25 / scenecut=40 / intra_refresh=0 / rc_lookahead=40 / rc=2pass / mbtree=1 / bitrate=9954 / ratetol=1.0 / qcomp=0.60 / qpmin=10 / qpmax=51 / qpstep=4 / cplxblur=20.0 / qblur=0.5 / vbv_maxrate=50000 / vbv_bufsize=50000 / ip_ratio=1.40 / aq=1:1.00 / nal_hrd=none
Language : Japanese
Default : Yes
Forced : Yes

Audio
ID : 2
Format : DTS
Format/Info : Digital Theater Systems
Codec ID : A_DTS
Duration : 2 h 16 min
Bit rate mode : Constant
Bit rate : 1 509 kb/s
Channel(s) : 6 channels
Channel layout : C L R Ls Rs LFE
Sampling rate : 48.0 kHz
Frame rate : 93.750 FPS (512 SPF)
Bit depth : 16 bits
Compression mode : Lossy
Stream size : 1.44 GiB (13%)
Language : Japanese
Default : Yes
Forced : Yes

Text
ID : 3
Format : UTF-8
Codec ID : S_TEXT/UTF8
Codec ID/Info : UTF-8 Plain Text
Duration : 2 h 11 min
Bit rate : 18 b/s
Count of elements : 801
Stream size : 17.9 KiB (0%)
Language : English
Default : Yes
Forced : No





1 个附件 售价 大小 下载 时间

Casshern.2004.1080p.BluRay.x264-aBD.torrent 0 金币 55.16K 2114 次 1月前

#1楼
发帖时间:2020-04-08 12:57:40   |   回复数:4
liyouchai
隐世仙人♂
谢谢楼主分享资源
1月前 #2楼
911degrees
隐世仙人♂
非常感谢,谢谢分享
1月前 #3楼
kola13
一派掌门
感谢分享
1月前 #4楼
yangbo83222179
一代宗师
谢谢楼主分享
1月前 #5楼
游客组