coor
一代宗师

[2019] [其他] [剧情] [WEB-1080P] 二十世纪 The.20th.Century.2019.1080p.WEB-DL.DD5.1.H264-FGT 3.33GB

-->

帖子完整标题:二十世纪 The.20th.Century.2019.1080p.WEB-DL.DD5.1.H264-FGT 3.33GB




◎译  名 二十世纪 / The 20th Century
◎片  名 The Twentieth Century
◎年  代 2019
◎产  地 加拿大
◎类  别 剧情 / 喜剧 / 传记
◎语  言 英语
◎上映日期 2019-09-07(多伦多电影节)
◎IMDb评分 7.4/10 from 186 users
◎IMDb链接 https://www.imdb.com/title/tt7969836
◎豆瓣评分 0/10 from 0 users
◎豆瓣链接 https://movie.douban.com/subject/34797400/
◎片  长 90分钟
◎导  演 Matthew Rankin
◎编  剧 Matthew Rankin
◎主  演 丹·贝尔尼 Dan Beirne
      Sarianne Cormier
      凯瑟琳·圣罗兰 Catherine St-Laurent
      Mikha?l Ahooja
      Brent Skagford
      肖恩·卡伦 Sean Cullen
      路易斯·涅 Louis Negin
      奇·陈 Kee Chan
      Trevor Anderson
      埃马纽埃尔·施瓦茨 Emmanuel Schwartz
      Richard Jutras
      Satine Scarlett Montaz
      Charlotte Legault
      Marc Ducusin
      嘉登·马隆 Jadyn Malone


◎标  签 加拿大 | 柏林电影节 | 2019 | 加拿大电影 | 2010s | 传记 | Berlinale70 | 2020s

◎简  介

  Toronto, 1899. At the dawn of a new century, ambitious young politician Mackenzie King (Beirne) dreams of becoming the Prime Minister of Canada. At the top of his class at the Dominion School of Nationhood, King’s prospects are good and his clairvoyant Mother (Negin) has already chosen his future wife, the Governor-General’s militant daughter, Lady Ruby Elliott (St-Laurent). But when King loses his bid for both leadership and the hand of Ruby to the heroic Bert Harper (Ahooja), his world is thrown into a chaos of maudlin outbursts and compulsive masturbation. Based upon the neurosis and confusions recorded in Mackenzie King’s diary, Matthew Rankin’s The Twentieth Century walks an ambiguous line between historical biopic and speculative fiction. Filmed in studio on 16mm in with animated sequences, it is at once an epic melodrama, a fulminating satire and a hallucinogenic fugue-state.

◎获奖情况

  第70届柏林国际电影节(2020)
  费比西奖(国际影评人联盟奖) 论坛及新电影论坛最佳影片
  泰迪熊奖(提名)
Video
ID : 1
Format : AVC
Format/Info : Advanced Video Codec
Format profile : [email protected]
Format settings : CABAC / 5 Ref Frames
Format settings, CABAC : Yes
Format settings, Reference frames : 5 frames
Codec ID : V_MPEG4/ISO/AVC
Duration : 1 h 29 min
Bit rate : 4 913 kb/s
Width : 1 438 pixels
Height : 1 080 pixels
Display aspect ratio : 4:3
Frame rate mode : Constant
Frame rate : 24.000 FPS
Color space : YUV
Chroma subsampling : 4:2:0
Bit depth : 8 bits
Scan type : Progressive
Bits/(Pixel*Frame) : 0.132
Stream size : 3.09 GiB (93%)
Title : The.Twentieth.Century.2019.1080p.WEB-DL.DD5.1.H264-FGT
Language : English
Default : Yes
Forced : No
Color range : Limited
Color primaries : BT.709
Transfer characteristics : BT.709
Matrix coefficients : BT.709

Audio
ID : 2
Format : AC-3
Format/Info : Audio Coding 3
Commercial name : Dolby Digital
Codec ID : A_AC3
Duration : 1 h 29 min
Bit rate mode : Constant
Bit rate : 384 kb/s
Channel(s) : 6 channels
Channel layout : L R C LFE Ls Rs
Sampling rate : 48.0 kHz
Frame rate : 31.250 FPS (1536 SPF)
Bit depth : 16 bits
Compression mode : Lossy
Stream size : 247 MiB (7%)
Title : The.Twentieth.Century.2019.1080p.WEB-DL.DD5.1.H264-FGT
Language : English
Service kind : Complete Main
Default : Yes
Forced : No

Text
ID : 3
Format : UTF-8
Codec ID : S_TEXT/UTF8
Codec ID/Info : UTF-8 Plain Text
Duration : 1 h 26 min
Bit rate : 59 b/s
Count of elements : 1212
Stream size : 37.8 KiB (0%)
Language : English
Default : Yes
Forced : No

Menu
00:00:00.000 : en:Chapter 1
00:03:42.333 : en:Chapter 2
00:08:18.041 : en:Chapter 3
00:14:50.916 : en:Chapter 4
00:22:44.541 : en:Chapter 5
00:34:34.291 : en:Chapter 6
00:39:32.874 : en:Chapter 7
00:44:05.874 : en:Chapter 8
00:50:26.499 : en:Chapter 9
00:54:52.790 : en:Chapter 10
01:00:45.331 : en:Chapter 11
01:12:50.914 : en:Chapter 12
01:17:33.164 : en:Chapter 13
01:27:53.664 : en:Chapter 14





1 个附件 售价 大小 下载 时间

The.20th.Century.2019.1080p.WEB-DL.DD5.1.H264-FGT.torrent 0 金币 33.85K 301 次 1月前

#1楼
发帖时间:2020-04-08 12:19:31   |   回复数:1
911degrees
隐世仙人♂
非常感谢,谢谢分享
1月前 #2楼
游客组