coor
一代宗师

[2013] [欧美] [剧情] [WEB-1080P] 安妮塔 Anita.2013.1080p.WEBRip.x264-RARBG 1.46GB

-->

帖子完整标题:安妮塔 Anita.2013.1080p.WEBRip.x264-RARBG 1.46GB




◎译  名 安妮塔 / Anita: Speaking Truth to Power
◎片  名 ANITA
◎年  代 2013
◎产  地 美国
◎类  别 剧情 / 纪录片 / 历史
◎语  言 英语
◎上映日期 2013-05-25(美国)
◎IMDb评分 6.6/10 from 404 users
◎IMDb链接 https://www.imdb.com/title/tt2481202
◎豆瓣评分 0/10 from 0 users
◎豆瓣链接 https://movie.douban.com/subject/20451120/
◎片  长 85分钟
◎导  演 Freida Lee Mock
◎编  剧 Freida Lee Mock

◎标  签 美国 | 纪录片 | 人物 | 纪录 | FreidaLeeMock | 2013 | 社会 | 影院

◎简  介

  ANITA tells the story about a young, brilliant African American Anita Hill who accuses the Supreme Court nominee Clarence Thomas of unwanted sexual advances during explosive Senate Hearings in 1991 and ignites a political firestorm about sexual harassment, race, power and politics that resonates 20 years later today. ANITA is a dramatic look at the consequences to a private citizen acting out of a civic duty to 'speak truth to power.' For the first time on film Anita Hills speaks about her experience in the Senate Hearings, her impact on issues of sexual harassment, workplace rights for women and men, social justice and equality. The film is about the empowerment of girls and women, and men, through the extraordinary story of Anita Hill.

◎获奖情况

  第13届华盛顿影评人协会奖(2014)
  华盛顿特区最佳写照(提名)
Video
ID : 1
Format : AVC
Format/Info : Advanced Video Codec
Format profile : [email protected]
Format settings : CABAC / 4 Ref Frames
Format settings, CABAC : Yes
Format settings, Reference frames : 4 frames
Codec ID : avc1
Codec ID/Info : Advanced Video Coding
Duration : 1 h 16 min
Bit rate : 2 500 kb/s
Width : 1 920 pixels
Height : 1 080 pixels
Display aspect ratio : 16:9
Frame rate mode : Constant
Frame rate : 29.970 (29970/1000/189150) FPS
Color space : YUV
Chroma subsampling : 4:2:0
Bit depth : 8 bits
Scan type : Progressive
Bits/(Pixel*Frame) : 0.040
Stream size : 1.34 GiB (91%)
Writing library : x264 core 152 r2851M ba24899
Encoding settings : cabac=1 / ref=4 / deblock=1:-1:-1 / analyse=0x3:0x113 / me=umh / subme=9 / psy=1 / psy_rd=1.00:0.15 / mixed_ref=1 / me_range=24 / chroma_me=1 / trellis=2 / 8x8dct=1 / cqm=0 / deadzone=21,11 / fast_pskip=1 / chroma_qp_offset=-3 / threads=16 / lookahead_threads=4 / sliced_threads=0 / nr=0 / decimate=1 / interlaced=0 / bluray_compat=0 / constrained_intra=0 / bframes=3 / b_pyramid=2 / b_adapt=2 / b_bias=0 / direct=3 / weightb=1 / open_gop=0 / weightp=2 / keyint=250 / keyint_min=25 / scenecut=40 / intra_refresh=0 / rc_lookahead=50 / rc=2pass / mbtree=1 / bitrate=2500 / ratetol=1.0 / qcomp=0.60 / qpmin=0 / qpmax=69 / qpstep=4 / cplxblur=20.0 / qblur=0.5 / vbv_maxrate=31250 / vbv_bufsize=31250 / nal_hrd=none / filler=0 / ip_ratio=1.40 / aq=3:1.00
Encoded date : UTC 2020-04-07 11:54:45
Tagged date : UTC 2020-04-07 11:54:45
Codec configuration box : avcC

Audio
ID : 2
Format : AAC LC
Format/Info : Advanced Audio Codec Low Complexity
Codec ID : mp4a-40-2
Duration : 1 h 16 min
Duration_LastFrame : -11 ms
Bit rate mode : Constant
Bit rate : 224 kb/s
Channel(s) : 6 channels
Channel layout : C L R Ls Rs LFE
Sampling rate : 48.0 kHz
Frame rate : 46.875 FPS (1024 SPF)
Compression mode : Lossy
Stream size : 123 MiB (8%)
Language : English
Default : Yes
Alternate group : 1
Encoded date : UTC 2020-04-07 11:54:45
Tagged date : UTC 2020-04-07 11:54:45





1 个附件 售价 大小 下载 时间

Anita.2013.1080p.WEBRip.x264-RARBG.torrent 0 金币 15.18K 133 次 1月前

#1楼
发帖时间:2020-04-07 23:45:37   |   回复数:1
911degrees
隐世仙人♂
非常感谢,谢谢分享
1月前 #2楼
游客组