coor
一代宗师

[2019] [其他] [剧情] [WEB-1080P] 葉問4 Ip.Man.4.The.Finale.2019.CHINESE.1080p.AMZN.WEBRip.DDP5.1.x264-NTG 5.77GB

-->

帖子完整标题:葉問4 Ip.Man.4.The.Finale.2019.CHINESE.1080p.AMZN.WEBRip.DDP5.1.x264-NTG 5.77GB




◎译  名 叶问4:完结篇 / Ip M4n / Ip Man 4 / Yip Man 4 / Yip Man 4:The Finale / 叶问4
◎片  名 葉問4
◎年  代 2019
◎产  地 中国香港
◎类  别 剧情 / 动作
◎语  言 粤语 / 英语
◎上映日期 2019-12-20(中国大陆)
◎IMDb评分 7.2/10 from 8857 users
◎IMDb链接 https://www.imdb.com/title/tt2076298
◎豆瓣评分 6.9/10 from 215200 users
◎豆瓣链接 https://movie.douban.com/subject/26885074/
◎片  长 107分钟
◎导  演 叶伟信 Wilson Yip
◎编  剧 黄子桓 Edmond Wong / 深泽寛 / 陈大利 Tai-lee Chan / 梁礼彦 Jill Leung Lai-yin
◎主  演 甄子丹 Donnie Yen
      吴樾 Yue Wu
      吴建豪 Vanness Wu
      斯科特·阿金斯 Scott Adkins
      李宛妲 Vanda Lee
      郑则仕 Kent Cheng
      陈国坤 Kwok-Kwan Chan
      敖嘉年 Kanin Ngo
      克里斯·柯林斯 Chris Collins
      叶禾 He Ye
      熊黛林 Lynn Hung
      罗莽 Meng Lo
      刘敬宇 Jim Liu
      史蒂文·达兹 Steven Dasz


◎标  签 功夫 | 叶问 | 甄子丹 | 动作 | 香港 | 香港电影 | 武侠 | 国产电影

◎简  介

  因故来到美国唐人街的叶问,意外卷入一场当地军方势力与华人武馆的纠纷,面对日益猖狂的民族歧视与压迫,叶问挺身而出,在美国海军陆战队军营拼死一战,以正宗咏春,向世界证明了中国功夫。

◎获奖情况

  第39届香港电影金像奖(2020)
  最佳导演(提名) 叶伟信
  最佳新演员(提名) 李宛妲
  最佳摄影(提名) 郑兆强
  最佳剪接(提名) 张嘉辉
  最佳美术指导(提名) 麦国强
  最佳服装造型设计(提名) 利碧君
  最佳动作设计(提名) 袁和平
  最佳原创电影音乐(提名) 川井宪次
  最佳音响效果(提名) 姚俊轩 / 李耀强
Video
ID : 1
Format : AVC
Format/Info : Advanced Video Codec
Format profile : [email protected]
Format settings : CABAC / 4 Ref Frames
Format settings, CABAC : Yes
Format settings, Reference frames : 4 frames
Codec ID : V_MPEG4/ISO/AVC
Duration : 1 h 45 min
Bit rate mode : Constant
Bit rate : 7 215 kb/s
Nominal bit rate : 10 000 kb/s
Width : 1 920 pixels
Height : 800 pixels
Display aspect ratio : 2.40:1
Frame rate mode : Constant
Frame rate : 24.000 FPS
Color space : YUV
Chroma subsampling : 4:2:0
Bit depth : 8 bits
Scan type : Progressive
Bits/(Pixel*Frame) : 0.196
Stream size : 5.30 GiB (92%)
Default : Yes
Forced : No
Color range : Limited
Color primaries : BT.709
Transfer characteristics : BT.709
Matrix coefficients : BT.709

Audio
ID : 2
Format : E-AC-3
Format/Info : Enhanced AC-3
Commercial name : Dolby Digital Plus
Codec ID : A_EAC3
Duration : 1 h 45 min
Bit rate mode : Constant
Bit rate : 640 kb/s
Channel(s) : 6 channels
Channel layout : L R C LFE Ls Rs
Sampling rate : 48.0 kHz
Frame rate : 31.250 FPS (1536 SPF)
Compression mode : Lossy
Stream size : 482 MiB (8%)
Language : Chinese
Service kind : Complete Main
Default : Yes
Forced : No

Text #1
ID : 3
Format : UTF-8
Codec ID : S_TEXT/UTF8
Codec ID/Info : UTF-8 Plain Text
Duration : 1 h 40 min
Bit rate : 26 b/s
Count of elements : 816
Stream size : 19.9 KiB (0%)
Language : English
Default : No
Forced : No

Text #2
ID : 4
Format : UTF-8
Codec ID : S_TEXT/UTF8
Codec ID/Info : UTF-8 Plain Text
Duration : 1 h 40 min
Bit rate : 26 b/s
Count of elements : 816
Stream size : 19.9 KiB (0%)
Title : SDH
Language : English
Default : No
Forced : No





1 个附件 售价 大小 下载 时间

Ip.Man.4.The.Finale.2019.CHINESE.1080p.AMZN.WEBRip.DDP5.1.x264-NTG.torrent 0 金币 29.41K 1666 次 1月前

#1楼
发帖时间:2020-04-07 21:51:09   |   回复数:3
jokingcheung
一代宗师
谢谢分享
1月前 #2楼
chulps
一代宗师
~ 珍惜+支持 ~
1月前 #3楼
911degrees
隐世仙人♂
非常感谢,谢谢分享
1月前 #4楼
游客组