coor
一代宗师

[2019] [其他] [剧情] [BD-720P] 葉問4 Ip.Man.4.The.Finale.2019.CHINESE.ENSUBBED.720p.BluRay.x264.DD5.1-PbK 3.18GB

-->

帖子完整标题:葉問4 Ip.Man.4.The.Finale.2019.CHINESE.ENSUBBED.720p.BluRay.x264.DD5.1-PbK 3.18GB




◎译  名 叶问4:完结篇 / Ip M4n / Ip Man 4 / Yip Man 4 / Yip Man 4:The Finale / 叶问4
◎片  名 葉問4
◎年  代 2019
◎产  地 中国香港
◎类  别 剧情 / 动作
◎语  言 粤语 / 英语
◎上映日期 2019-12-20(中国大陆)
◎IMDb评分 7.2/10 from 8857 users
◎IMDb链接 https://www.imdb.com/title/tt2076298
◎豆瓣评分 6.9/10 from 215200 users
◎豆瓣链接 https://movie.douban.com/subject/26885074/
◎片  长 107分钟
◎导  演 叶伟信 Wilson Yip
◎编  剧 黄子桓 Edmond Wong / 深泽寛 / 陈大利 Tai-lee Chan / 梁礼彦 Jill Leung Lai-yin
◎主  演 甄子丹 Donnie Yen
      吴樾 Yue Wu
      吴建豪 Vanness Wu
      斯科特·阿金斯 Scott Adkins
      李宛妲 Vanda Lee
      郑则仕 Kent Cheng
      陈国坤 Kwok-Kwan Chan
      敖嘉年 Kanin Ngo
      克里斯·柯林斯 Chris Collins
      叶禾 He Ye
      熊黛林 Lynn Hung
      罗莽 Meng Lo
      刘敬宇 Jim Liu
      史蒂文·达兹 Steven Dasz


◎标  签 功夫 | 叶问 | 甄子丹 | 动作 | 香港 | 香港电影 | 武侠 | 国产电影

◎简  介

  因故来到美国唐人街的叶问,意外卷入一场当地军方势力与华人武馆的纠纷,面对日益猖狂的民族歧视与压迫,叶问挺身而出,在美国海军陆战队军营拼死一战,以正宗咏春,向世界证明了中国功夫。

◎获奖情况

  第39届香港电影金像奖(2020)
  最佳导演(提名) 叶伟信
  最佳新演员(提名) 李宛妲
  最佳摄影(提名) 郑兆强
  最佳剪接(提名) 张嘉辉
  最佳美术指导(提名) 麦国强
  最佳服装造型设计(提名) 利碧君
  最佳动作设计(提名) 袁和平
  最佳原创电影音乐(提名) 川井宪次
  最佳音响效果(提名) 姚俊轩 / 李耀强
Video
ID : 1
Format : AVC
Format/Info : Advanced Video Codec
Format profile : [email protected]
Format settings : CABAC / 12 Ref Frames
Format settings, CABAC : Yes
Format settings, Reference frames : 12 frames
Codec ID : V_MPEG4/ISO/AVC
Duration : 1 h 45 min
Bit rate : 3 693 kb/s
Width : 1 280 pixels
Height : 536 pixels
Display aspect ratio : 2.40:1
Frame rate mode : Constant
Frame rate : 24.000 FPS
Color space : YUV
Chroma subsampling : 4:2:0
Bit depth : 8 bits
Scan type : Progressive
Bits/(Pixel*Frame) : 0.224
Stream size : 2.71 GiB (85%)
Writing library : x264 core 158 r2984+49 6932f4a t_mod_New [[email protected] X86_64]
Encoding settings : cabac=1 / ref=12 / deblock=1:-3:-3 / analyse=0x3:0x133 / me=umh / subme=10 / psy=1 / fade_compensate=0.00 / psy_rd=1.00:0.00 / mixed_ref=1 / me_range=32 / chroma_me=1 / trellis=2 / 8x8dct=1 / cqm=0 / deadzone=21,11 / fast_pskip=0 / chroma_qp_offset=-2 / threads=16 / lookahead_threads=4 / sliced_threads=0 / nr=0 / decimate=0 / interlaced=0 / bluray_compat=0 / constrained_intra=0 / fgo=0 / bframes=12 / b_pyramid=2 / b_adapt=2 / b_bias=0 / direct=3 / weightb=1 / open_gop=0 / weightp=2 / keyint=480 / keyint_min=24 / scenecut=40 / intra_refresh=0 / rc_lookahead=80 / rc=crf / mbtree=0 / crf=16.5000 / qcomp=0.60 / qpmin=0:0:0 / qpmax=69:69:69 / qpstep=4 / vbv_maxrate=62500 / vbv_bufsize=78125 / crf_max=0.0 / nal_hrd=none / filler=0 / ip_ratio=1.30 / pb_ratio=1.20 / aq=3:0.80 / aq-sensitivity=10.00 / aq-factor=1.00:1.00:1.00 / aq2=0 / aq3=0
Language : English
Default : Yes
Forced : No
Color range : Limited
Color primaries : BT.709
Transfer characteristics : BT.709
Matrix coefficients : BT.709

Audio
ID : 2
Format : AC-3
Format/Info : Audio Coding 3
Commercial name : Dolby Digital
Codec ID : A_AC3
Duration : 1 h 45 min
Bit rate mode : Constant
Bit rate : 640 kb/s
Channel(s) : 6 channels
Channel layout : L R C LFE Ls Rs
Sampling rate : 48.0 kHz
Frame rate : 31.250 FPS (1536 SPF)
Bit depth : 16 bits
Compression mode : Lossy
Stream size : 481 MiB (15%)
Language : English
Service kind : Complete Main
Default : Yes
Forced : No

Text
ID : 3
Format : UTF-8
Codec ID : S_TEXT/UTF8
Codec ID/Info : UTF-8 Plain Text
Duration : 1 h 38 min
Bit rate : 50 b/s
Count of elements : 1312
Stream size : 36.5 KiB (0%)
Language : English
Default : No
Forced : No

Menu
00:00:00.000 : en:Chapter 1
00:02:53.708 : en:Chapter 2
00:10:51.458 : en:Chapter 3
00:23:55.333 : en:Chapter 4
00:31:37.833 : en:Chapter 5
00:41:29.458 : en:Chapter 6
00:50:01.458 : en:Chapter 7
01:01:22.250 : en:Chapter 8
01:10:40.292 : en:Chapter 9
01:18:19.083 : en:Chapter 10
01:29:56.917 : en:Chapter 11
01:41:40.333 : en:Chapter 12





1 个附件 售价 大小 下载 时间

Ip.Man.4.The.Finale.2019.CHINESE.ENSUBBED.720p.BluRay.x264.DD5.1-PbK.torrent 0 金币 32.41K 777 次 1月前

#1楼
发帖时间:2020-04-07 20:59:41   |   回复数:3
jokingcheung
一代宗师
谢谢分享
1月前 #2楼
911degrees
隐世仙人♂
非常感谢,谢谢分享
1月前 #3楼
Buffett
武林高手
谢谢楼主
1月前 #4楼
游客组