coor
一代宗师

[更 早] [其他] [剧情] [BD-1080P] 沃伊采克/沃切克 Woyzeck.1979.1080p.BluRay.x264-USURY 7.95GB

-->

帖子完整标题:沃伊采克/沃切克 Woyzeck.1979.1080p.BluRay.x264-USURY 7.95GB




◎译  名 沃伊采克 / 沃切克 / 沃采克 / 浮石记 / 胡扎克
◎片  名 Woyzeck
◎年  代 1979
◎产  地 西德
◎类  别 剧情
◎语  言 德语
◎上映日期 1979-05-25
◎IMDb评分 7.1/10 from 8398 users
◎IMDb链接 https://www.imdb.com/title/tt0080149
◎豆瓣评分 7.7/10 from 781 users
◎豆瓣链接 https://movie.douban.com/subject/1294489/
◎片  长 74分钟(哥伦比亚)
◎导  演 沃纳·赫尔佐格 Werner Herzog
◎编  剧 格奥尔格·毕希纳 Georg Büchner / 沃纳·赫尔佐格 Werner Herzog
◎主  演 克劳斯·金斯基 Klaus Kinski
      埃娃·马特斯 Eva Mattes
      沃尔夫·冈赖克曼 Wolfgang Reichmann
      Willy Semmelrogge
      约瑟夫·贝尔比奇 Josef Bierbichler
      Paul Burian
      福尔克尔·普雷希特尔 Volker Prechtel
      Dieter Augustin
      伊尔姆·赫尔曼 Irm Hermann
      Wolfgang B?chler
      Rosemarie Heinikel
      赫伯特·福克斯 Herbert Fux


◎标  签 德国 | 赫尔佐格 | WernerHerzog | 沃纳·赫尔佐格 | 1970s | 德国电影 | Werner_Herzog | 1979

◎简  介

  沃切克(克劳斯·金斯基 Klaus Kinski 饰)是一个名不见经传的小小士兵,既没有强壮结实的身体,也没有深谋远虑的头脑,只能说他是千千万万名士兵中最不起眼的那一个。然而,上天派给了沃切克一位名为马格瑞斯(埃娃·马特斯 Eva Mattes 饰)女人,马格瑞斯和沃切克情 投意合,两人很快就走到了一起,不仅如此,马格瑞斯的腹中还怀上了沃切克的孩子。
  沃切克的情感经历遭到了队长的无情嘲讽,后者认为未婚生子是违反了人伦纲纪的不道德的行为。之后,沃切克发现马格瑞斯背叛了他,投向了别的男人的怀抱,巨大的压力之下,沃切克的精神渐渐走到了濒临崩溃的边缘。在一次激烈的冲突之中,沃切克杀死了马格瑞斯。

◎获奖情况

  第32届戛纳电影节(1979)
  主竞赛单元 金棕榈奖(提名) 沃纳·赫尔佐格
  主竞赛单元 最佳女配角 埃娃·马特斯
Video
ID : 1
Format : AVC
Format/Info : Advanced Video Codec
Format profile : [email protected]
Format settings : CABAC / 4 Ref Frames
Format settings, CABAC : Yes
Format settings, Reference frames : 4 frames
Codec ID : V_MPEG4/ISO/AVC
Duration : 1 h 19 min
Bit rate : 13.5 Mb/s
Width : 1 792 pixels
Height : 1 080 pixels
Display aspect ratio : 5:3
Frame rate mode : Constant
Frame rate : 24.000 FPS
Color space : YUV
Chroma subsampling : 4:2:0
Bit depth : 8 bits
Scan type : Progressive
Bits/(Pixel*Frame) : 0.291
Stream size : 7.54 GiB (95%)
Writing library : x264 core 159 r2991 1771b55
Encoding settings : cabac=1 / ref=4 / deblock=1:-3:-3 / analyse=0x3:0x133 / me=umh / subme=9 / psy=1 / psy_rd=1.00:0.00 / mixed_ref=1 / me_range=16 / chroma_me=1 / trellis=2 / 8x8dct=1 / cqm=0 / deadzone=21,11 / fast_pskip=0 / chroma_qp_offset=-2 / threads=18 / lookahead_threads=1 / sliced_threads=0 / nr=0 / decimate=1 / interlaced=0 / bluray_compat=0 / constrained_intra=0 / bframes=3 / b_pyramid=2 / b_adapt=1 / b_bias=0 / direct=3 / weightb=1 / open_gop=0 / weightp=2 / keyint=240 / keyint_min=24 / scenecut=40 / intra_refresh=0 / rc_lookahead=50 / rc=2pass / mbtree=1 / bitrate=13534 / ratetol=1.0 / qcomp=0.60 / qpmin=0 / qpmax=69 / qpstep=4 / cplxblur=20.0 / qblur=0.5 / ip_ratio=1.40 / aq=1:1.00
Language : English
Default : Yes
Forced : No

Audio
ID : 2
Format : FLAC
Format/Info : Free Lossless Audio Codec
Codec ID : A_FLAC
Duration : 1 h 19 min
Bit rate mode : Variable
Bit rate : 727 kb/s
Channel(s) : 1 channel
Channel layout : C
Sampling rate : 48.0 kHz
Frame rate : 11.719 FPS (4096 SPF)
Bit depth : 24 bits
Compression mode : Lossless
Stream size : 415 MiB (5%)
Writing library : libFLAC 1.2.1 (UTC 2007-09-17)
Language : German
Default : Yes
Forced : No

Text
ID : 3
Format : UTF-8
Codec ID : S_TEXT/UTF8
Codec ID/Info : UTF-8 Plain Text
Duration : 1 h 18 min
Bit rate : 36 b/s
Count of elements : 653
Stream size : 20.9 KiB (0%)
Title : English
Language : English
Default : Yes
Forced : Yes

Menu
00:00:00.000 : en:00:00:00.000
00:04:19.875 : en:00:04:19.875
00:10:07.417 : en:00:10:07.417
00:15:14.917 : en:00:15:14.917
00:22:10.792 : en:00:22:10.792
00:28:48.167 : en:00:28:48.167
00:36:22.292 : en:00:36:22.292
00:44:55.708 : en:00:44:55.708
00:52:33.000 : en:00:52:33.000
01:02:38.667 : en:01:02:38.667
01:04:24.958 : en:01:04:24.958
01:14:16.667 : en:01:14:16.667





1 个附件 售价 大小 下载 时间

Woyzeck.1979.1080p.BluRay.x264-USURY.torrent 0 金币 40.35K 322 次 1月前

#1楼
发帖时间:2020-04-07 12:57:37   |   回复数:1
911degrees
隐世仙人♂
非常感谢,谢谢分享
1月前 #2楼
游客组