coor
一代宗师

[2017] [日本] [其他] [BD-1080P] 雌猫们 Dawn.of.the.Felines.2017.1080p.BluRay.x264-REGRET 6.56GB

-->

帖子完整标题:雌猫们 Dawn.of.the.Felines.2017.1080p.BluRay.x264-REGRET 6.56GB




◎译  名 雌猫们 / Dawn of the Felines / 母猫(台) / 雌猫们之夜(港)
◎片  名 牝猫たち
◎年  代 2017
◎产  地 日本
◎类  别 情色
◎语  言 日语
◎上映日期 2017-01-14(日本)
◎IMDb评分 5.6/10 from 201 users
◎IMDb链接 https://www.imdb.com/title/tt6000140
◎豆瓣评分 6.0/10 from 2606 users
◎豆瓣链接 https://movie.douban.com/subject/26862905/
◎片  长 84分钟
◎导  演 白石和弥 Kazuya Shiraishi
◎编  剧 白石和弥 Kazuya Shiraishi
◎主  演 井端珠里 Juri Ibata
      真上五月 Satsuki Maue
      美知枝 Michie
      音尾琢真 Takuma Otoo
      郭智博 Tomohiro Kaku
      村田秀亮 Hideaki Murata
      吉泽健 Ken Yoshizawa
      白川和子 Kazuko Shirakawa
      松永拓野 Takuya Matsunaga
      吉村界人 Kaito Yoshimura
      米村亮太朗 Ry?tar? Yonemura
      宇田高木 Takaki Uda
      野中隆光 Takamitsu Nonaka
      山咲美花 Mika Yamazaki
      天马春 Haru Tenma
      久保田和靖 Kazunobu Kubota


◎标  签 情色 | 日本 | 粉红电影 | 2017 | 雌猫们 | 剧情 | 粉红 | 日活

◎简  介

  电影公司「日活」创业百年,最具代表性的一个品牌,是在七、 八十年代风靡一时的「粉红映画」(日文叫Roman Porno,海外称之为Pink Movie),亦即是浪漫化的成人电影。今年适逢「粉红映画」诞生四十五周年,「日活」特别筹划了「Roman Porno Reboot」计划,找来园子温、行定勳、中田秀夫、盐田明彦、白石和弥五位名导操刀,各拍一部粉红片。五人要跟足过往的游戏规则:每十分钟要有一场情慾戏、片长必须在七十至八十分钟之间、一律只有很低的製作费、要一星期内完成拍摄,其他一切自由发挥。结果证明五位导演不但玩得起,而且还玩得极有一手。
  盐田的《湿濡的女人》最先曝光,重新演绎「粉红」经典《湿濡的恋人们》,讲野性少女在海边故意湿身,然后贱价卖身给路过的男人。白石执导的《雌猫们》同样向经典《雌猫们之夜》致敬,新版搬到池袋街头上演,讲在网吧打趸的难民、单亲妈妈和不育人妻在夜间浪荡的性活动。行定勳的《撩乱的裸舞曲》则是原创故事,谐星板尾创路演脑闭塞导演,陷入了女色陷阱,搞到身败名裂。《午夜凶铃》导演中田秀夫初战成人世界,打动了九十后女优飞鸟凛全裸演出女同志故事《白百合》。向来出位的园子温就尽展其反叛本色,以毒攻毒,用色情反色情拍了《Antiporno》,找来前AKB成员富手麻妙首次全裸主演。
  「粉红映画」之所以留名几十年,是因为「淫」得有道,成本低但剧本扎实,而且是当时年轻新导磨练技艺的修罗场,《礼仪师》奥斯卡导演泷田洋二郎、《谈谈情,跳跳舞》的周防正行、《死亡笔记》的金子修介、《后乐园》已故导演森田芳光等大导出道时都拍过粉红片。停产了廿八年的粉红系列今次一口气推出五片,别具意义,将陆续于十一月底起在日本上映。
Video
ID : 1
Format : AVC
Format/Info : Advanced Video Codec
Format profile : [email protected]
Format settings : CABAC / 5 Ref Frames
Format settings, CABAC : Yes
Format settings, Reference frames : 5 frames
Codec ID : V_MPEG4/ISO/AVC
Duration : 1 h 24 min
Bit rate : 9 538 kb/s
Width : 1 920 pixels
Height : 816 pixels
Display aspect ratio : 2.35:1
Frame rate mode : Constant
Frame rate : 23.976 (24000/1001/189150) FPS
Color space : YUV
Chroma subsampling : 4:2:0
Bit depth : 8 bits
Scan type : Progressive
Bits/(Pixel*Frame) : 0.254
Stream size : 5.66 GiB (86%)
Writing library : x264 core 159 r2991 1771b55
Encoding settings : cabac=1 / ref=5 / deblock=1:-3:-3 / analyse=0x3:0x133 / me=umh / subme=9 / psy=1 / psy_rd=1.00:0.00 / mixed_ref=1 / me_range=16 / chroma_me=1 / trellis=2 / 8x8dct=1 / cqm=0 / deadzone=21,11 / fast_pskip=0 / chroma_qp_offset=-2 / threads=24 / lookahead_threads=2 / sliced_threads=0 / nr=0 / decimate=1 / interlaced=0 / bluray_compat=0 / constrained_intra=0 / bframes=3 / b_pyramid=2 / b_adapt=1 / b_bias=0 / direct=3 / weightb=1 / open_gop=0 / weightp=2 / keyint=240 / keyint_min=24 / scenecut=40 / intra_refresh=0 / rc_lookahead=50 / rc=2pass / mbtree=1 / bitrate=9538 / ratetol=1.0 / qcomp=0.60 / qpmin=0 / qpmax=69 / qpstep=4 / cplxblur=20.0 / qblur=0.5 / ip_ratio=1.40 / aq=1:1.00
Language : English
Default : Yes
Forced : No

Audio
ID : 2
Format : DTS
Format/Info : Digital Theater Systems
Codec ID : A_DTS
Duration : 1 h 24 min
Bit rate mode : Constant
Bit rate : 1 509 kb/s
Channel(s) : 6 channels
Channel layout : C L R Ls Rs LFE
Sampling rate : 48.0 kHz
Frame rate : 93.750 FPS (512 SPF)
Bit depth : 24 bits
Compression mode : Lossy
Stream size : 917 MiB (14%)
Language : Japanese
Default : Yes
Forced : No

Text #1
ID : 3
Format : UTF-8
Codec ID : S_TEXT/UTF8
Codec ID/Info : UTF-8 Plain Text
Duration : 1 h 24 min
Bit rate : 30 b/s
Count of elements : 887
Stream size : 19.1 KiB (0%)
Title : English Forced
Language : English
Default : Yes
Forced : Yes

Text #2
ID : 4
Format : UTF-8
Codec ID : S_TEXT/UTF8
Codec ID/Info : UTF-8 Plain Text
Duration : 1 h 24 min
Bit rate : 34 b/s
Count of elements : 817
Stream size : 21.6 KiB (0%)
Title : French
Language : French
Default : No
Forced : No

Menu
00:00:00.000 : en:Chapter 01
00:08:01.564 : en:Chapter 02
00:15:39.897 : en:Chapter 03
00:22:39.650 : en:Chapter 04
00:30:34.916 : en:Chapter 05
00:38:27.138 : en:Chapter 06
00:46:16.190 : en:Chapter 07
00:54:20.424 : en:Chapter 08
01:02:13.855 : en:Chapter 09
01:07:59.450 : en:Chapter 10
01:13:23.357 : en:Chapter 11
01:21:20.459 : en:Chapter 12
00:10:00.000 : en:Chapter 13





1 个附件 售价 大小 下载 时间

Dawn.of.the.Felines.2017.1080p.BluRay.x264-REGRET.torrent 0 金币 33.65K 2884 次 13天前

#1楼
发帖时间:2020-03-26 12:47:42   |   回复数:2
911degrees
隐世仙人♂
非常感谢,谢谢分享
12天前 #2楼
liyouchai
隐世仙人♂
谢谢楼主分享资源
12天前 #3楼
游客组