coor
一代宗师

[2018] [欧美] [喜剧] [BD-Remux] Bully Bully.2018.1080p.BluRay.REMUX.AVC.DTS-HD.MA.5.1-FGT 19.12GB

-->

帖子完整标题:Bully Bully.2018.1080p.BluRay.REMUX.AVC.DTS-HD.MA.5.1-FGT 19.12GB




◎译  名 
◎片  名 Bully
◎年  代 2018
◎产  地 美国
◎类  别 喜剧
◎语  言 英语
◎上映日期 2018-06-15(与影共舞)
◎IMDb评分 4.9/10 from 119 users
◎IMDb链接 https://www.imdb.com/title/tt5741008
◎豆瓣评分 0/10 from 0 users
◎豆瓣链接 https://movie.douban.com/subject/35001405/
◎片  长 83分钟
◎导  演 Santino Campanelli
◎编  剧 Joe Campanelli
◎主  演 塔克·阿尔布里齐 Tucker Albrizzi
      罗恩·坎纳达 Ron Canada
      丹尼·特雷霍 Danny Trejo
      维森特·帕斯托雷 Vincent Pastore
      Jack DiFalco
      Elanna White
      李杰 Jay Lee
      Dino Petrera
      Jennifer Montague
      Matthew F. O'Connor
      Peter Evangelista
      James Gonzalez
      Jason Erik Zacek
      Amanda Jane Stern
      Kera O'Bryon


◎简  介

  A coming-of-age comedy about Jimmy (Tucker Albrizzi), a quiet, heavy-set high school kid who is constantly tormented by the resident school bully Miles (Jack DiFalco) and his cronies. After an altercation on his way home from school lands him a chance meeting with former professional boxer "Action" Jackson (Ron Canada) and trainer Manny (Danny Trejo), Jimmy decides to learn how to fight back.
Video
ID : 1
Format : AVC
Format/Info : Advanced Video Codec
Format profile : [email protected]
Format settings : CABAC / 4 Ref Frames
Format settings, CABAC : Yes
Format settings, Reference frames : 4 frames
Codec ID : V_MPEG4/ISO/AVC
Duration : 1 h 23 min
Bit rate mode : Constant
Bit rate : 31.4 Mb/s
Width : 1 920 pixels
Height : 1 080 pixels
Display aspect ratio : 16:9
Frame rate mode : Constant
Frame rate : 23.976 (24000/1001/189150) FPS
Color space : YUV
Chroma subsampling : 4:2:0
Bit depth : 8 bits
Scan type : Progressive
Bits/(Pixel*Frame) : 0.632
Stream size : 17.4 GiB (91%)
Title : Bully.2018.1080p.BluRay.REMUX.AVC.DTS-HD.MA.5.1-FGT
Language : English
Default : No
Forced : No
Color range : Limited
Color primaries : BT.709
Transfer characteristics : BT.709
Matrix coefficients : BT.709

Audio
ID : 2
Format : DTS XLL
Format/Info : Digital Theater Systems
Commercial name : DTS-HD Master Audio
Codec ID : A_DTS
Duration : 1 h 23 min
Bit rate mode : Variable
Bit rate : 2 866 kb/s
Channel(s) : 6 channels
Channel layout : C L R Ls Rs LFE
Sampling rate : 48.0 kHz
Frame rate : 93.750 FPS (512 SPF)
Bit depth : 24 bits
Compression mode : Lossless
Stream size : 1.66 GiB (9%)
Title : Bully.2018.1080p.BluRay.REMUX.AVC.DTS-HD.MA.5.1-FGT
Language : English
Default : Yes
Forced : No

Text
ID : 3
Format : PGS
Muxing mode : zlib
Codec ID : S_HDMV/PGS
Codec ID/Info : Picture based subtitle format used on BDs/HD-DVDs
Duration : 1 h 22 min
Bit rate : 37.5 kb/s
Count of elements : 2906
Stream size : 22.1 MiB (0%)
Title : English-PGS
Language : English
Default : Yes
Forced : No

Menu
00:00:00.000 : en:Chapter 01
00:10:00.516 : en:Chapter 02
00:21:02.094 : en:Chapter 03
00:30:19.943 : en:Chapter 04
00:39:27.198 : en:Chapter 05
00:49:44.940 : en:Chapter 06
01:02:22.572 : en:Chapter 07
01:09:25.286 : en:Chapter 08
01:17:11.668 : en:Chapter 09





1 个附件 售价 大小 下载 时间

Bully.2018.1080p.BluRay.REMUX.AVC.DTS-HD.MA.5.1-FGT.torrent 0 金币 96.15K 182 次 14天前

#1楼
发帖时间:2020-03-25 04:25:12   |   回复数:1
911degrees
隐世仙人♂
非常感谢,谢谢分享
14天前 #2楼
游客组