coor
一代宗师

[2014] [其他] [恐怖] [WEB-720P] 夺魂 Hollow.2014.VIETNAMESE.720p.NF.WEBRip.DDP2.0.x264-NTG 1.75GB

-->

帖子完整标题:夺魂 Hollow.2014.VIETNAMESE.720p.NF.WEBRip.DDP2.0.x264-NTG 1.75GB




◎译  名 夺魂 / Hollow
◎片  名 ?o?t H?n
◎年  代 2014
◎产  地 越南
◎类  别 恐怖
◎语  言 越南语
◎上映日期 2014-07-18(越南)
◎IMDb评分 5.8/10 from 140 users
◎IMDb链接 https://www.imdb.com/title/tt3595748
◎豆瓣评分 0/10 from 0 users
◎豆瓣链接 https://movie.douban.com/subject/25932061/
◎片  长 90分钟
◎导  演 陈光咸 Ham Tran
◎编  剧 陈光咸 Ham Tran
◎主  演 翘征 Kieu Chinh
      梅世侠 Jayvee Mai The Hiep
      Nguyen Hong An
      玉侠 Ngoc Hiep Nguyen
      凯特·绒 Nhung Kate
      Suboi
      清美 Thanh My
      陈宝山 Bao Son Tran


◎标  签 越南 | 电影 | 东南亚-越南 | 2014

◎简  介

  A young girl falls into a river and drowns. When her body is found in a remote village along the river, her uncle arrives to claim her body, only to find that she is very much alive. But when she returns to her family, unexplainable occurrences lead them to believe she is possessed.
Video
ID : 1
Format : AVC
Format/Info : Advanced Video Codec
Format profile : [email protected]
Format settings : CABAC / 3 Ref Frames
Format settings, CABAC : Yes
Format settings, Reference frames : 3 frames
Codec ID : V_MPEG4/ISO/AVC
Duration : 1 h 35 min
Bit rate mode : Variable
Bit rate : 2 490 kb/s
Maximum bit rate : 3 735 kb/s
Width : 1 280 pixels
Height : 720 pixels
Display aspect ratio : 16:9
Frame rate mode : Constant
Frame rate : 24.000 FPS
Color space : YUV
Chroma subsampling : 4:2:0
Bit depth : 8 bits
Scan type : Progressive
Bits/(Pixel*Frame) : 0.113
Stream size : 1.66 GiB (95%)
Writing library : x264 core 148 r2715 7e75228
Encoding settings : cabac=1 / ref=3 / deblock=1:0:0 / analyse=0x1:0x111 / me=umh / subme=10 / psy=1 / psy_rd=1.00:0.00 / mixed_ref=1 / me_range=24 / chroma_me=1 / trellis=2 / 8x8dct=0 / cqm=0 / deadzone=21,11 / fast_pskip=1 / chroma_qp_offset=-2 / threads=8 / lookahead_threads=1 / sliced_threads=0 / nr=0 / decimate=1 / interlaced=0 / bluray_compat=0 / stitchable=1 / constrained_intra=0 / bframes=2 / b_pyramid=0 / b_adapt=2 / b_bias=0 / direct=3 / weightb=1 / open_gop=0 / weightp=2 / keyint=250 / keyint_min=24 / scenecut=0 / intra_refresh=0 / rc_lookahead=48 / rc=2pass / mbtree=1 / bitrate=2490 / ratetol=1.0 / qcomp=0.50 / qpmin=6 / qpmax=51 / qpstep=4 / cplxblur=20.0 / qblur=0.5 / vbv_maxrate=3735 / vbv_bufsize=4980 / nal_hrd=vbr / filler=0 / ip_ratio=1.40 / aq=1:1.00
Default : Yes
Forced : No

Audio
ID : 2
Format : E-AC-3
Format/Info : Enhanced AC-3
Commercial name : Dolby Digital Plus
Codec ID : A_EAC3
Duration : 1 h 35 min
Bit rate mode : Constant
Bit rate : 128 kb/s
Channel(s) : 2 channels
Channel layout : L R
Sampling rate : 48.0 kHz
Frame rate : 31.250 FPS (1536 SPF)
Compression mode : Lossy
Stream size : 87.7 MiB (5%)
Title : Vietnamese
Language : Vietnamese
Service kind : Complete Main
Default : Yes
Forced : No

Text #1
ID : 3
Format : UTF-8
Codec ID : S_TEXT/UTF8
Codec ID/Info : UTF-8 Plain Text
Duration : 1 h 27 min
Bit rate : 33 b/s
Count of elements : 888
Stream size : 21.6 KiB (0%)
Language : English
Default : No
Forced : No

Text #2
ID : 4
Format : UTF-8
Codec ID : S_TEXT/UTF8
Codec ID/Info : UTF-8 Plain Text
Duration : 1 h 29 min
Bit rate : 44 b/s
Count of elements : 894
Stream size : 29.2 KiB (0%)
Language : Vietnamese
Default : No
Forced : No

Text #3
ID : 5
Format : UTF-8
Codec ID : S_TEXT/UTF8
Codec ID/Info : UTF-8 Plain Text
Duration : 1 h 34 min
Bit rate : 52 b/s
Count of elements : 1096
Stream size : 36.6 KiB (0%)
Title : SDH
Language : Vietnamese
Default : No
Forced : No





1 个附件 售价 大小 下载 时间

Hollow.2014.VIETNAMESE.720p.NF.WEBRip.DDP2.0.x264-NTG.torrent 0 金币 18.02K 245 次 1月前

#1楼
发帖时间:2020-01-22 21:07:19   |   回复数:1
911degrees
隐世仙人♂
非常感谢,谢谢分享
22天前 #2楼
游客组