coor
一代宗师

[更 早] [欧美] [喜剧] [WEB-1080P] 骗徒宝一对/亲爱的!你被骗我 Another.You.1991.1080p.AMZN.WEBRip.DD2.0.x264-ABM 9.27GB

-->

帖子完整标题:骗徒宝一对/亲爱的!你被骗我 Another.You.1991.1080p.AMZN.WEBRip.DD2.0.x264-ABM 9.27GB




◎译  名 骗徒宝一对 / 亲爱的!你被骗我 / 光棍遇着?皮柴
◎片  名 Another You
◎年  代 1991
◎产  地 美国
◎类  别 喜剧 / 犯罪
◎语  言 英语
◎上映日期 1991-07-26
◎IMDb评分 5.4/10 from 3340 users
◎IMDb链接 https://www.imdb.com/title/tt0101356
◎豆瓣评分 0/10 from 0 users
◎豆瓣链接 https://movie.douban.com/subject/1296477/
◎片  长 Spain: 94 分钟
◎导  演 Maurice Phillips
◎编  剧 Ziggy Steinberg
◎主  演 吉恩·怀尔德 Gene Wilder
      理查德·普赖尔 Richard Pryor


◎标  签 喜剧 | 喜劇 | buddy | Richard_Pryor | Gene_Wilder | 1990s | 美国 | Sony

◎简  介

  影坛著名的喜剧搭档金怀德和李察普莱尔两人再度携手合作。乔治(金怀德)因无法控制说谎的冲动,已经在精神病院住了三年半,艾迪(李察普莱尔)则是个同意以社区服务抵免牢狱之灾的职业骗徒,而帮助乔治重新适应社会便是艾迪社区服务的一部份... 当有人将乔治误认为失踪的百万富翁时,原本一有机会便要甩掉乔治的艾迪立刻当机立断,决定利用这情况好大捞一笔;刚开始时,一切都进行得很顺利,然而命运之神却似乎另有打算...
Video
ID : 1
Format : AVC
Format/Info : Advanced Video Codec
Format profile : [email protected]
Format settings : CABAC / 4 Ref Frames
Format settings, CABAC : Yes
Format settings, Reference frames : 4 frames
Codec ID : V_MPEG4/ISO/AVC
Duration : 1 h 34 min
Bit rate mode : Variable
Bit rate : 13.8 Mb/s
Maximum bit rate : 15.0 Mb/s
Width : 1 920 pixels
Height : 1 080 pixels
Display aspect ratio : 16:9
Frame rate mode : Constant
Frame rate : 23.976 (24000/1001) FPS
Color space : YUV
Chroma subsampling : 4:2:0
Bit depth : 8 bits
Scan type : Progressive
Bits/(Pixel*Frame) : 0.278
Stream size : 9.12 GiB (98%)
Writing library : x264 core 148 r2623 d5b2374
Encoding settings : cabac=1 / ref=4 / deblock=1:-1:-1 / analyse=0x3:0x133 / me=umh / subme=9 / psy=1 / psy_rd=1.00:0.15 / mixed_ref=1 / me_range=24 / chroma_me=1 / trellis=2 / 8x8dct=1 / cqm=0 / deadzone=21,11 / fast_pskip=1 / chroma_qp_offset=-3 / threads=34 / lookahead_threads=5 / sliced_threads=0 / nr=150 / decimate=1 / interlaced=0 / bluray_compat=0 / constrained_intra=0 / bframes=8 / b_pyramid=2 / b_adapt=2 / b_bias=0 / direct=3 / weightb=1 / open_gop=0 / weightp=2 / keyint=120 / keyint_min=61 / scenecut=0 / intra_refresh=0 / rc_lookahead=120 / rc=crf / mbtree=1 / crf=18.0 / qcomp=0.60 / qpmin=0 / qpmax=69 / qpstep=4 / vbv_maxrate=15000 / vbv_bufsize=31250 / crf_max=0.0 / nal_hrd=vbr / filler=0 / ip_ratio=1.40 / aq=3:1.00
Default : Yes
Forced : No
Color range : Limited
Color primaries : BT.709
Transfer characteristics : BT.709
Matrix coefficients : BT.709

Audio
ID : 2
Format : E-AC-3
Format/Info : Enhanced AC-3
Commercial name : Dolby Digital Plus
Codec ID : A_EAC3
Duration : 1 h 34 min
Bit rate mode : Constant
Bit rate : 224 kb/s
Channel(s) : 2 channels
Channel layout : L R
Sampling rate : 48.0 kHz
Frame rate : 31.250 FPS (1536 SPF)
Compression mode : Lossy
Stream size : 152 MiB (2%)
Language : English
Service kind : Complete Main
Default : Yes
Forced : No

Text
ID : 3
Format : UTF-8
Codec ID : S_TEXT/UTF8
Codec ID/Info : UTF-8 Plain Text
Duration : 1 h 34 min
Bit rate : 81 b/s
Count of elements : 1692
Stream size : 56.6 KiB (0%)
Language : English
Default : No
Forced : No





1 个附件 售价 大小 下载 时间

Another.You.1991.1080p.AMZN.WEBRip.DD2.0.x264-ABM.torrent 0 金币 93.25K 196 次 7月前

#1楼
发帖时间:2020-01-15 04:53:51   |   回复数:1
911degrees
隐世仙人♂
非常感谢,谢谢分享
7月前 #2楼
游客组