coor
一代宗师

[2019] [欧美] [喜剧] [WEB-1080P] 埃内斯托的宣言 Ernestos.Manifesto.2019.1080p.WEB-DL.DD5.1.H264-FGT 3.86GB

-->

帖子完整标题:埃内斯托的宣言 Ernestos.Manifesto.2019.1080p.WEB-DL.DD5.1.H264-FGT 3.86GB




◎译  名 埃内斯托的宣言
◎片  名 Ernesto's Manifesto
◎年  代 2019
◎产  地 美国
◎类  别 喜剧
◎语  言 英语
◎上映日期 2019-12-13(美国)
◎IMDb链接 https://www.imdb.com/title/tt8757908
◎豆瓣评分 0/10 from 0 users
◎豆瓣链接 https://movie.douban.com/subject/34910523/
◎片  长 99分钟
◎导  演 David M. Matthews
◎编  剧 David M. Matthews

◎简  介

  Ernesto is a sweet, gentle man who is doing the best he can to get by in current-day Los Angeles. A sudden series of bad breaks, however, cause him to lose his job, his girlfriend, and his home - placing him in a very precarious situation. Then, just when all seems hopeless, he gains employment, a great place to live, m.77mi.cc an important friendship, and unexpectedly, an improved career trajectory. In his new position, he finds love, financial independence and a bright future - a happy ending beyond his wildest expectations.
Video
ID : 1
Format : AVC
Format/Info : Advanced Video Codec
Format profile : [email protected]
Format settings : CABAC / 4 Ref Frames
Format settings, CABAC : Yes
Format settings, Reference frames : 4 frames
Codec ID : V_MPEG4/ISO/AVC
Duration : 1 h 38 min
Bit rate : 5 230 kb/s
Width : 1 920 pixels
Height : 1 080 pixels
Display aspect ratio : 16:9
Frame rate mode : Constant
Frame rate : 23.976 FPS
Color space : YUV
Chroma subsampling : 4:2:0
Bit depth : 8 bits
Scan type : Progressive
Bits/(Pixel*Frame) : 0.105
Stream size : 3.59 GiB (93%)
Title : Ernestos.Manifesto.2019.1080p.WEB-DL.DD5.1.H264-FGT
Language : English
Default : Yes
Forced : No
Color range : Limited
Color primaries : BT.709
Transfer characteristics : BT.709
Matrix coefficients : BT.709

Audio
ID : 2
Format : AC-3
Format/Info : Audio Coding 3
Commercial name : Dolby Digital
Codec ID : A_AC3
Duration : 1 h 38 min
Bit rate mode : Constant
Bit rate : 384 kb/s
Channel(s) : 6 channels
Channel layout : L R C LFE Ls Rs
Sampling rate : 48.0 kHz
Frame rate : 31.250 FPS (1536 SPF)
Bit depth : 16 bits
Compression mode : Lossy
Stream size : 270 MiB (7%)
Title : Ernestos.Manifesto.2019.1080p.WEB-DL.DD5.1.H264-FGT
Language : English
Service kind : Complete Main
Default : Yes
Forced : No

Text
ID : 3
Format : UTF-8
Codec ID : S_TEXT/UTF8
Codec ID/Info : UTF-8 Plain Text
Duration : 1 h 36 min
Bit rate : 88 b/s
Count of elements : 1866
Stream size : 62.3 KiB (0%)
Language : English
Default : Yes
Forced : No

Menu
00:00:00.000 : en:1
00:14:49.000 : en:2
00:28:48.000 : en:3
00:45:00.000 : en:4
01:00:20.000 : en:5
01:13:57.000 : en:6





1 个附件 售价 大小 下载 时间

Ernestos.Manifesto.2019.1080p.WEB-DL.DD5.1.H264-FGT.torrent 0 金币 39.12K 217 次 5月前

#1楼
发帖时间:2020-01-14 16:20:32   |   回复数:1
911degrees
隐世仙人♂
非常感谢,谢谢分享
5月前 #2楼
游客组