coor
武林盟主

[2011] [欧美] [剧情] [WEB-1080P] 柠檬大嘴巴 Lemonade.Mouth.2011.EXTENDED.1080p.AMZN.WEBRip.DDP5.1.x264-TVSmash 11.56GB

-->

帖子完整标题:柠檬大嘴巴 Lemonade.Mouth.2011.EXTENDED.1080p.AMZN.WEBRip.DDP5.1.x264-TVSmash 11.56GB




◎译  名 柠檬大嘴巴
◎片  名 Lemonade Mouth
◎年  代 2011
◎产  地 美国
◎类  别 剧情 / 喜剧 / 爱情 / 音乐 / 家庭
◎语  言 英语
◎上映日期 2011-04-15
◎IMDb评分 6.9/10 from 12929 users
◎IMDb链接 https://www.imdb.com/title/tt1648204
◎豆瓣评分 6.9/10 from 884 users
◎豆瓣链接 https://movie.douban.com/subject/5152503/
◎片  长 106分钟
◎导  演 派翠西亚·里根 Patricia Riggen
◎编  剧 April Blair
◎主  演 布丽奇·门德勒 Bridgit Mendler
      Adam Hicks
      Hayley Kiyoko
      Naomi Scott
      布莱克·迈克尔


◎标  签 青春 | 音乐 | 美国 | 校园 | 迪士尼 | 美国电影 | 喜剧 | Disney

◎简  介

  这是一部由迪士尼频道电视剧《查莉成长日记》(Good Luck Charlie)女一号Bridgit Mendler领衔主演的迪士尼频道原创电影,改编自同名青少年小说。五个原本不起眼的高中生,在一次课后留堂中相识,留堂教室门外的一台柠檬汁售货机使他们有了交集,无意中演奏出的音乐让他们碰出了火花。无奈学校由一个看重利益的刻薄校长掌管;出于利益的考虑,校长偏爱体育生,与运动无关的其他活动都被迫转入地下。五个同学随后组成的乐队,柠檬大嘴巴,担当起了在这所学校为普通同学代言,号召大家勇敢表达自我的领袖角色;与此同时,挫折和非议也接踵而至,就连那台柠檬汁售货机也难逃被校长下令移除的命运。爱喝柠檬汁的他们,能为大家争取到表达自己的自由吗?他们的音乐事业能取得最后的辉煌吗?
Video
ID : 2
Format : AVC
Format/Info : Advanced Video Codec
Format profile : [email protected]
Format settings : CABAC / 4 Ref Frames
Format settings, CABAC : Yes
Format settings, Reference frames : 4 frames
Codec ID : V_MPEG4/ISO/AVC
Duration : 1 h 53 min
Bit rate mode : Variable
Bit rate : 14.0 Mb/s
Maximum bit rate : 15.0 Mb/s
Width : 1 920 pixels
Height : 1 080 pixels
Display aspect ratio : 16:9
Frame rate mode : Constant
Frame rate : 23.976 (24000/1001) FPS
Color space : YUV
Chroma subsampling : 4:2:0
Bit depth : 8 bits
Scan type : Progressive
Bits/(Pixel*Frame) : 0.281
Stream size : 11.1 GiB (96%)
Writing library : x264 core 148 r2623 d5b2374
Encoding settings : cabac=1 / ref=4 / deblock=1:-1:-1 / analyse=0x3:0x133 / me=umh / subme=9 / psy=1 / psy_rd=1.00:0.15 / mixed_ref=1 / me_range=24 / chroma_me=1 / trellis=2 / 8x8dct=1 / cqm=0 / deadzone=21,11 / fast_pskip=1 / chroma_qp_offset=-3 / threads=34 / lookahead_threads=5 / sliced_threads=0 / nr=150 / decimate=1 / interlaced=0 / bluray_compat=0 / constrained_intra=0 / bframes=8 / b_pyramid=2 / b_adapt=2 / b_bias=0 / direct=3 / weightb=1 / open_gop=0 / weightp=2 / keyint=120 / keyint_min=61 / scenecut=0 / intra_refresh=0 / rc_lookahead=120 / rc=crf / mbtree=1 / crf=18.0 / qcomp=0.60 / qpmin=0 / qpmax=69 / qpstep=4 / vbv_maxrate=15000 / vbv_bufsize=31250 / crf_max=0.0 / nal_hrd=vbr / filler=0 / ip_ratio=1.40 / aq=3:1.00
Language : English
Default : Yes
Forced : No
Color range : Limited
Color primaries : BT.709
Transfer characteristics : BT.709
Matrix coefficients : BT.709

Audio
ID : 1
Format : E-AC-3
Format/Info : Enhanced AC-3
Commercial name : Dolby Digital Plus
Codec ID : A_EAC3
Duration : 1 h 53 min
Bit rate mode : Constant
Bit rate : 640 kb/s
Channel(s) : 6 channels
Channel layout : L R C LFE Ls Rs
Sampling rate : 48.0 kHz
Frame rate : 31.250 FPS (1536 SPF)
Compression mode : Lossy
Stream size : 518 MiB (4%)
Language : English
Service kind : Complete Main
Default : Yes
Forced : No

Text
ID : 3
Format : UTF-8
Codec ID : S_TEXT/UTF8
Codec ID/Info : UTF-8 Plain Text
Duration : 1 h 52 min
Bit rate : 81 b/s
Count of elements : 2286
Stream size : 67.2 KiB (0%)
Language : English
Default : No
Forced : No





1 个附件 售价 大小 下载 时间

Lemonade.Mouth.2011.EXTENDED.1080p.AMZN.WEBRip.DDP5.1.x264-TVSmash.torrent 0 金币 58.39K 259 次 1月前

#1楼
发帖时间:2019-12-05 21:03:38   |   回复数:3
pokuan909
武林高手
感谢分享
1月前 #2楼
911degrees
隐世仙人♂
非常感谢,谢谢分享
1月前 #3楼
tanchoohoon
武林盟主
感谢楼主的无私分享
1月前 #4楼
游客组