coor
武林盟主

[2018] [其他] [剧情] [BD-1080P] 怪胎 Freaks.2018.1080p.BluRay.x264.DTS-HD.MA.5.1-FGT 8.17GB

-->

帖子完整标题:怪胎 Freaks.2018.1080p.BluRay.x264.DTS-HD.MA.5.1-FGT 8.17GB




◎译  名 怪胎
◎片  名 Freaks
◎年  代 2018
◎产  地 加拿大 Canada
◎类  别 剧情 / 科幻 / 惊悚
◎语  言 英语
◎上映日期 2018-09-07(多伦多电影节)
◎IMDb评分 6.9/10 from 1101 users
◎IMDb链接 https://www.imdb.com/title/tt8781414
◎豆瓣评分 0/10 from 0 users
◎豆瓣链接 https://movie.douban.com/subject/30294963/
◎片  长 104分钟
◎导  演 Zach Lipovsky / Adam Stein
◎编  剧 Zach Lipovsky / Adam Stein
◎主  演 阿曼达·克鲁 Amanda Crew
      科维西·阿梅扬 Kwesi Ameyaw
      布鲁斯·邓恩 Bruce Dern
      米歇尔·哈里逊 Michelle Harrison
      埃米尔·赫斯基 Emile Hirsch
      朴敏庆 Grace Park
      莱克西·科尔克 Lexy Kolker


◎标  签 科幻 | 加拿大 | 惊悚 | 恐怖 | 剧情 | 2018 | 美式恐怖 | 电影

◎简  介

  In this genre-bending psychological sci-fi thriller, a bold girl discovers a bizarre, threatening, and mysterious new world beyond her front door after she escapes her father's protective and paranoid control.
Video
ID : 1
Format : AVC
Format/Info : Advanced Video Codec
Format profile : [email protected]
Format settings : CABAC / 5 Ref Frames
Format settings, CABAC : Yes
Format settings, Reference frames : 5 frames
Codec ID : V_MPEG4/ISO/AVC
Duration : 1 h 44 min
Bit rate : 8 916 kb/s
Width : 1 920 pixels
Height : 816 pixels
Display aspect ratio : 2.35:1
Frame rate mode : Constant
Frame rate : 23.976 (24000/1001) FPS
Color space : YUV
Chroma subsampling : 4:2:0
Bit depth : 8 bits
Scan type : Progressive
Bits/(Pixel*Frame) : 0.237
Stream size : 6.53 GiB (80%)
Title : Freaks.2018.1080p.BluRay.x264.DTS-HD.MA.5.1-FGT
Writing library : x264 core 158 r2988 7817004
Encoding settings : cabac=1 / ref=5 / deblock=1:0:0 / analyse=0x3:0x113 / me=umh / subme=8 / psy=1 / psy_rd=1.00:0.00 / mixed_ref=1 / me_range=16 / chroma_me=1 / trellis=2 / 8x8dct=1 / cqm=0 / deadzone=21,11 / fast_pskip=1 / chroma_qp_offset=-2 / threads=16 / lookahead_threads=2 / sliced_threads=0 / nr=0 / decimate=1 / interlaced=0 / bluray_compat=0 / constrained_intra=0 / bframes=3 / b_pyramid=2 / b_adapt=2 / b_bias=0 / direct=3 / weightb=1 / open_gop=0 / weightp=2 / keyint=240 / keyint_min=23 / scenecut=40 / intra_refresh=0 / rc_lookahead=50 / rc=2pass / mbtree=1 / bitrate=8916 / ratetol=1.0 / qcomp=0.60 / qpmin=0 / qpmax=69 / qpstep=4 / cplxblur=20.0 / qblur=0.5 / ip_ratio=1.40 / aq=1:1.00
Default : Yes
Forced : No

Audio
ID : 2
Format : DTS XLL
Format/Info : Digital Theater Systems
Commercial name : DTS-HD Master Audio
Codec ID : A_DTS
Duration : 1 h 44 min
Bit rate mode : Variable
Bit rate : 2 201 kb/s
Channel(s) : 6 channels
Channel layout : C L R Ls Rs LFE
Sampling rate : 48.0 kHz
Frame rate : 93.750 FPS (512 SPF)
Bit depth : 16 bits
Compression mode : Lossless
Stream size : 1.61 GiB (20%)
Title : Freaks.2018.1080p.BluRay.x264.DTS-HD.MA.5.1-FGT
Language : English
Default : Yes
Forced : No

Text #1
ID : 3
Format : UTF-8
Codec ID : S_TEXT/UTF8
Codec ID/Info : UTF-8 Plain Text
Duration : 1 h 39 min
Bit rate : 47 b/s
Count of elements : 1470
Stream size : 34.5 KiB (0%)
Title : English-SRT
Language : English
Default : Yes
Forced : No

Text #2
ID : 4
Format : PGS
Muxing mode : zlib
Codec ID : S_HDMV/PGS
Codec ID/Info : Picture based subtitle format used on BDs/HD-DVDs
Duration : 1 h 39 min
Bit rate : 31.7 kb/s
Count of elements : 2445
Stream size : 22.6 MiB (0%)
Title : English-PGS
Language : English
Default : No
Forced : No

Text #3
ID : 5
Format : PGS
Muxing mode : zlib
Codec ID : S_HDMV/PGS
Codec ID/Info : Picture based subtitle format used on BDs/HD-DVDs
Duration : 1 h 43 min
Bit rate : 29.1 kb/s
Count of elements : 2498
Stream size : 21.5 MiB (0%)
Title : French-PGS
Language : French
Default : No
Forced : No

Menu
00:00:00.000 : en:Chapter 00
00:08:23.711 : en:Chapter 01
00:18:54.591 : en:Chapter 02
00:26:20.704 : en:Chapter 03
00:34:09.547 : en:Chapter 04
00:40:43.524 : en:Chapter 05
00:47:21.421 : en:Chapter 06
00:57:34.534 : en:Chapter 07
01:06:01.248 : en:Chapter 08
01:13:50.134 : en:Chapter 09
01:24:28.772 : en:Chapter 10
01:33:36.360 : en:Chapter 11
01:41:04.558 : en:Chapter 12





1 个附件 售价 大小 下载 时间

Freaks.2018.1080p.BluRay.x264.DTS-HD.MA.5.1-FGT.torrent 0 金币 41.37K 1120 次 1月前

#1楼
发帖时间:2019-12-05 03:14:08   |   回复数:1
911degrees
隐世仙人♂
非常感谢,谢谢分享
1月前 #2楼
游客组