coor
武林高手

[更 早] [欧美] [喜剧] [WEB-1080P] 最后一导 The.Last.Shot.2004.1080p.AMZN.WEBRip.DDP5.1.x264-alfaHD 7.63GB

-->

帖子完整标题:最后一导 The.Last.Shot.2004.1080p.AMZN.WEBRip.DDP5.1.x264-alfaHD 7.63GB




◎译  名 最后一导 / The Last Shot / The Last Shot / The Last Shot / 黑道开麦拉
◎片  名 The Last Shot
◎年  代 2004
◎产  地 美国
◎类  别 喜剧
◎语  言 英语
◎上映日期 2004-09-24
◎IMDb评分 5.6/10 from 4010 users
◎IMDb链接 https://www.imdb.com/title/tt0357054
◎豆瓣评分 0/10 from 0 users
◎豆瓣链接 https://movie.douban.com/subject/1309130/
◎片  长 93 分钟
◎导  演 Jeff Nathanson
◎编  剧 Jeff Nathanson / Steve Fishman
◎主  演 Matthew Broderick
      Alec Baldwin


◎标  签 美国 | 喜剧 | 青春 | 癫狂 | 迪斯尼 | 荒诞 | 美国电影 | 我的电影4

◎简  介

  生活潦倒的導演史提文偶遇電影製作人戴文,並獲邀出任一部新戲的導演。戴文的真正身份其實是一名聯邦密探,拍戲只是他誘捕黑幫大佬的煙幕…
Video
ID : 1
Format : AVC
Format/Info : Advanced Video Codec
Format profile : [email protected]
Format settings : CABAC / 4 Ref Frames
Format settings, CABAC : Yes
Format settings, Reference frames : 4 frames
Codec ID : V_MPEG4/ISO/AVC
Duration : 1 h 33 min
Bit rate mode : Variable
Bit rate : 11.0 Mb/s
Maximum bit rate : 15.0 Mb/s
Width : 1 920 pixels
Height : 1 080 pixels
Display aspect ratio : 16:9
Frame rate mode : Constant
Frame rate : 23.976 (24000/1001) FPS
Color space : YUV
Chroma subsampling : 4:2:0
Bit depth : 8 bits
Scan type : Progressive
Bits/(Pixel*Frame) : 0.222
Stream size : 7.21 GiB (95%)
Writing library : x264 core 148 r2623 d5b2374
Encoding settings : cabac=1 / ref=4 / deblock=1:-1:-1 / analyse=0x3:0x133 / me=umh / subme=9 / psy=1 / psy_rd=1.00:0.15 / mixed_ref=1 / me_range=24 / chroma_me=1 / trellis=2 / 8x8dct=1 / cqm=0 / deadzone=21,11 / fast_pskip=1 / chroma_qp_offset=-3 / threads=34 / lookahead_threads=5 / sliced_threads=0 / nr=150 / decimate=1 / interlaced=0 / bluray_compat=0 / constrained_intra=0 / bframes=8 / b_pyramid=2 / b_adapt=2 / b_bias=0 / direct=3 / weightb=1 / open_gop=0 / weightp=2 / keyint=120 / keyint_min=61 / scenecut=0 / intra_refresh=0 / rc_lookahead=120 / rc=crf / mbtree=1 / crf=18.0 / qcomp=0.60 / qpmin=0 / qpmax=69 / qpstep=4 / vbv_maxrate=15000 / vbv_bufsize=31250 / crf_max=0.0 / nal_hrd=vbr / filler=0 / ip_ratio=1.40 / aq=3:1.00
Default : Yes
Forced : No
Color range : Limited
Color primaries : BT.709
Transfer characteristics : BT.709
Matrix coefficients : BT.709

Audio
ID : 2
Format : E-AC-3
Format/Info : Enhanced AC-3
Commercial name : Dolby Digital Plus
Codec ID : A_EAC3
Duration : 1 h 33 min
Bit rate mode : Constant
Bit rate : 640 kb/s
Channel(s) : 6 channels
Channel layout : L R C LFE Ls Rs
Sampling rate : 48.0 kHz
Frame rate : 31.250 FPS (1536 SPF)
Compression mode : Lossy
Stream size : 427 MiB (5%)
Language : English
Service kind : Complete Main
Default : Yes
Forced : No

Text #1
ID : 3
Format : UTF-8
Codec ID : S_TEXT/UTF8
Codec ID/Info : UTF-8 Plain Text
Duration : 1 h 26 min
Bit rate : 76 b/s
Count of elements : 1453
Stream size : 48.6 KiB (0%)
Language : English
Default : No
Forced : No

Text #2
ID : 4
Format : UTF-8
Codec ID : S_TEXT/UTF8
Codec ID/Info : UTF-8 Plain Text
Duration : 1 h 28 min
Bit rate : 76 b/s
Count of elements : 1496
Stream size : 49.6 KiB (0%)
Title : SDH
Language : English
Default : No
Forced : No





1 个附件 售价 大小 下载 时间

The.Last.Shot.2004.1080p.AMZN.WEBRip.DDP5.1.x264-alfaHD.torrent 0 金币 38.68K 182 次 12天前

#1楼
发帖时间:2019-12-03 12:18:19   |   回复数:1
911degrees
隐世仙人♂
非常感谢,谢谢分享
12天前 #2楼
游客组