coor
武林高手

[更 早] [欧美] [喜剧] [BD-Remux] 卡萨布兰卡之夜 A.Night.in.Casablanca.1946.1080p.BluRay.REMUX.AVC.DTS-HD.MA.2.0-FGT 15.1

-->

帖子完整标题:卡萨布兰卡之夜 A.Night.in.Casablanca.1946.1080p.BluRay.REMUX.AVC.DTS-HD.MA.2.0-FGT 15.17GB




◎译  名 卡萨布兰卡之夜
◎片  名 A Night in Casablanca
◎年  代 1946
◎产  地 美国
◎类  别 喜剧
◎语  言 英语
◎上映日期 1949-03-03
◎IMDb评分 7.0/10 from 5538 users
◎IMDb链接 http://www.imdb.com/title/tt0038777
◎豆瓣评分 7.1/10 from 55 users
◎豆瓣链接 https://movie.douban.com/subject/1784410/
◎片  长 85 分钟
◎导  演 Archie Mayo
◎编  剧 约瑟夫·菲尔兹 Joseph Fields / Roland Kibbee
◎主  演 Groucho Marx
      Harpo Marx
      Chico Marx


◎标  签 美国 | 喜剧 | Marx_Brothers | 美国电影 | comedy | 1940S | 马克思兄弟 | 马克斯兄弟

◎简  介

  In post-war Casablanca, Ronald Kornblow is hired to run a hotel whose previous managers have all wound up being murdered. French soldier Pierre suspects the involvement of ex-Nazis, specifically Count Pfefferman (in reality, the notorious Heinrich Stubel). Pierre is accused of collaborating with the enemy and attempts to clear his name with the help of his girlfriend Annette and cagey buddy Corbaccio. They enlist the aid of Pfefferman's beleaguered mute valet, Rusty, and discover a hoard of war booty the Nazis have stashed in the hotel.
Video
ID : 1
Format : AVC
Format/Info : Advanced Video Codec
Format profile : [email protected]
Format settings : CABAC / 4 Ref Frames
Format settings, CABAC : Yes
Format settings, Reference frames : 4 frames
Codec ID : V_MPEG4/ISO/AVC
Duration : 1 h 24 min
Bit rate mode : Variable
Bit rate : 24.0 Mb/s
Maximum bit rate : 34.0 Mb/s
Width : 1 920 pixels
Height : 1 080 pixels
Display aspect ratio : 16:9
Frame rate mode : Constant
Frame rate : 23.976 (24000/1001) FPS
Standard : NTSC
Color space : YUV
Chroma subsampling : 4:2:0
Bit depth : 8 bits
Scan type : Progressive
Bits/(Pixel*Frame) : 0.483
Stream size : 14.2 GiB (94%)
Title : A.Night.in.Casablanca.1946.1080p.BluRay.REMUX.AVC.DTS-HD.MA.2.0-FGT
Language : English
Default : No
Forced : No
Color range : Limited
Color primaries : BT.709
Transfer characteristics : BT.709
Matrix coefficients : BT.709

Audio
ID : 2
Format : DTS XLL
Format/Info : Digital Theater Systems
Commercial name : DTS-HD Master Audio
Codec ID : A_DTS
Duration : 1 h 24 min
Bit rate mode : Variable
Bit rate : 1 633 kb/s
Channel(s) : 2 channels
Sampling rate : 48.0 kHz
Frame rate : 93.750 FPS (512 SPF)
Bit depth : 24 bits
Compression mode : Lossless
Stream size : 989 MiB (6%)
Title : A.Night.in.Casablanca.1946.1080p.BluRay.REMUX.AVC.DTS-HD.MA.2.0-FGT
Language : English
Default : Yes
Forced : No

Menu
00:00:00.000 : en:Chapter 01
00:10:00.600 : en:Chapter 02
00:20:01.200 : en:Chapter 03
00:30:01.800 : en:Chapter 04
00:40:02.400 : en:Chapter 05
00:50:02.916 : en:Chapter 06
01:00:03.600 : en:Chapter 07
01:10:04.074 : en:Chapter 08
01:20:04.424 : en:Chapter 09





1 个附件 售价 大小 下载 时间

A.Night.in.Casablanca.1946.1080p.BluRay.REMUX.AVC.DTS-HD.MA.2.0-FGT.torrent 0 金币 76.41K 280 次 11天前

#1楼
发帖时间:2019-12-03 11:32:57   |   回复数:1
911degrees
隐世仙人♂
非常感谢,谢谢分享
11天前 #2楼
游客组