coor
武林高手

[更 早] [其他] [惊悚] [BD-Remux] 割脑行尸/魔鬼动出站 Death.Warmed.Up.1984.1080p.BluRay.REMUX.AVC.DTS-HD.MA.5.1-FGT 20.38GB

-->

帖子完整标题:割脑行尸/魔鬼动出站 Death.Warmed.Up.1984.1080p.BluRay.REMUX.AVC.DTS-HD.MA.5.1-FGT 20.38GB




◎译  名 割脑行尸 / 魔鬼动出站
◎片  名 Death Warmed Up
◎年  代 1984
◎产  地 澳大利亚 / 新西兰
◎类  别 惊悚 / 恐怖
◎语  言 英语
◎上映日期 1986-02-01
◎IMDb评分 4.4/10 from 783 users
◎IMDb链接 https://www.imdb.com/title/tt0089002
◎豆瓣评分 4.6/10 from 58 users
◎豆瓣链接 https://movie.douban.com/subject/1301150/
◎片  长 78分钟
◎导  演 David Blyth
◎编  剧 David Blyth / Michael Heath (III)
◎主  演 迈克尔·赫斯特 Michael Hurst
      Margaret Umbers
      布鲁诺·劳伦斯 Bruno Lawrence


◎标  签 恐怖 | 惊悚 | 澳大利亚 | 动作 | Cult | 悚怖特区 | 经典 | 电影

◎简  介

  A kid is hypnotized by a scientist to kill his parents and ends in a mental institution. As a grown up he returns to seek revenge over the scientist.
Video
ID : 1
Format : AVC
Format/Info : Advanced Video Codec
Format profile : [email protected]
Format settings : CABAC / 3 Ref Frames
Format settings, CABAC : Yes
Format settings, Reference frames : 3 frames
Codec ID : V_MPEG4/ISO/AVC
Duration : 1 h 18 min
Bit rate mode : Variable
Bit rate : 33.0 Mb/s
Maximum bit rate : 36.0 Mb/s
Width : 1 920 pixels
Height : 1 080 pixels
Display aspect ratio : 16:9
Frame rate mode : Constant
Frame rate : 23.976 (24000/1001) FPS
Standard : NTSC
Color space : YUV
Chroma subsampling : 4:2:0
Bit depth : 8 bits
Scan type : Progressive
Bits/(Pixel*Frame) : 0.664
Stream size : 18.1 GiB (89%)
Title : Death.Warmed.Up.1984.1080p.BluRay.REMUX.AVC.DTS-HD.MA.5.1-FGT
Writing library : x264pro - Adobe CS Exporter Plug-in
Encoding settings : cabac=1 / ref=4 / deblock=1:-2:-2 / analyse=0x3:0x133 / me=umh / subme=10 / psy=1 / psy_rd=1.00:0.25 / mixed_ref=1 / me_range=24 / chroma_me=1 / trellis=2 / 8x8dct=1 / cqm=0 / deadzone=6,6 / fast_pskip=1 / chroma_qp_offset=-4 / threads=48 / lookahead_threads=8 / sliced_threads=0 / slices=4 / nr=0 / decimate=0 / interlaced=0 / bluray_compat=1 / constrained_intra=0 / bframes=3 / b_pyramid=1 / b_adapt=2 / b_bias=0 / direct=3 / weightb=1 / open_gop=0 / weightp=1 / keyint=24 / keyint_min=1 / scenecut=40 / intra_refresh=0 / rc_lookahead=24 / rc=2pass / mbtree=1 / bitrate=33000 / ratetol=1.0 / qcomp=0.80 / qpmin=0 / qpmax=69 / qpstep=4 / cplxblur=20.0 / qblur=0.5 / vbv_maxrate=36000 / vbv_bufsize=30000 / nal_hrd=vbr / ip_ratio=1.10 / aq=1:1.00
Language : English
Default : No
Forced : No
Color range : Limited
Color primaries : BT.709
Transfer characteristics : BT.709
Matrix coefficients : BT.709

Audio #1
ID : 2
Format : DTS XLL
Format/Info : Digital Theater Systems
Commercial name : DTS-HD Master Audio
Codec ID : A_DTS
Duration : 1 h 18 min
Bit rate mode : Variable
Bit rate : 3 737 kb/s
Channel(s) : 6 channels
Channel layout : C L R Ls Rs LFE
Sampling rate : 48.0 kHz
Frame rate : 93.750 FPS (512 SPF)
Bit depth : 24 bits
Compression mode : Lossless
Stream size : 2.06 GiB (10%)
Title : Death.Warmed.Up.1984.1080p.BluRay.REMUX.AVC.DTS-HD.MA.5.1-FGT
Language : English
Default : Yes
Forced : No

Audio #2
ID : 3
Format : AC-3
Format/Info : Audio Coding 3
Commercial name : Dolby Digital
Codec ID : A_AC3
Duration : 1 h 18 min
Bit rate mode : Constant
Bit rate : 384 kb/s
Channel(s) : 2 channels
Channel layout : L R
Sampling rate : 48.0 kHz
Frame rate : 31.250 FPS (1536 SPF)
Bit depth : 16 bits
Compression mode : Lossy
Stream size : 217 MiB (1%)
Title : Death.Warmed.Up.1984.1080p.BluRay.REMUX.AVC.DTS-HD.MA.5.1-FGT
Language : English
Service kind : Complete Main
Default : No
Forced : No

Text
ID : 4
Format : PGS
Muxing mode : zlib
Codec ID : S_HDMV/PGS
Codec ID/Info : Picture based subtitle format used on BDs/HD-DVDs
Duration : 1 h 17 min
Bit rate : 14.5 kb/s
Count of elements : 1464
Stream size : 8.10 MiB (0%)
Title : English-PGS
Language : English
Default : Yes
Forced : No

Menu
00:00:00.000 : en:Chapter 01
00:01:42.602 : en:Chapter 02
00:07:46.424 : en:Chapter 03
00:15:29.094 : en:Chapter 04
00:23:11.890 : en:Chapter 05
00:29:31.019 : en:Chapter 06
00:35:24.664 : en:Chapter 07
00:45:09.415 : en:Chapter 08
00:50:04.334 : en:Chapter 09
00:58:28.379 : en:Chapter 10
01:03:34.268 : en:Chapter 11
01:11:23.487 : en:Chapter 12
01:17:09.875 : en:Chapter 13





1 个附件 售价 大小 下载 时间

Death.Warmed.Up.1984.1080p.BluRay.REMUX.AVC.DTS-HD.MA.5.1-FGT.torrent 0 金币 51.50K 301 次 12天前

#1楼
发帖时间:2019-12-03 11:30:53   |   回复数:3
blj2007
一派掌门
感谢分享,辛苦啦
12天前 #2楼
911degrees
隐世仙人♂
非常感谢,谢谢分享
12天前 #3楼
kola13
一派掌门
感谢分享
12天前 #4楼
游客组