coor
武林高手

[2017] [其他] [剧情] [BD-Remux] 莫茜 My.Days.of.Mercy.2017.1080p.BluRay.REMUX.AVC.DTS-HD.MA.5.1-FGT 16.59GB

-->

帖子完整标题:莫茜 My.Days.of.Mercy.2017.1080p.BluRay.REMUX.AVC.DTS-HD.MA.5.1-FGT 16.59GB




◎译  名 莫茜 / Mercy
◎片  名 My Days of Mercy
◎年  代 2017
◎产  地 英国 / 美国
◎类  别 剧情 / 爱情
◎语  言 英语
◎上映日期 2017-09-08(多伦多国际电影节) / 2019-04-05(英国) / 2019-07-05(美国)
◎IMDb评分 6.3/10 from 1516 users
◎IMDb链接 https://www.imdb.com/title/tt5978724
◎豆瓣评分 7.1/10 from 1159 users
◎豆瓣链接 https://movie.douban.com/subject/26864413/
◎片  长 107分钟
◎导  演 塔莉·埃泽尔 Tali Shalom-Ezer
◎编  剧 乔·巴顿 Joe Barton
◎主  演 凯特·玛拉 Kate Mara
      艾伦·佩吉 Ellen Page
      伊莱亚斯·科泰斯 Elias Koteas
      艾米·西米茨 Amy Seimetz
      布莱恩·格拉格提 Brian Geraghty
      博·纳普 Beau Knapp
      托尼娅·皮金斯 Tonya Pinkins
      杰克·罗宾森 Jake Robinson
      查理·肖特韦尔 Charlie Shotwell
      乔丹·崔威里恩 Jordan Trovillion
      凯文·克劳利 Kevin Crowley
      丹妮丝·达·维拉 Denise Dal Vera
      威廉·威利特 William Willet
      David Pittinger


◎标  签 同性 | LGBT | 美国 | 艾伦·佩吉 | les | EllenPage | 爱情 | 2017

◎简  介

  一个死囚犯的女儿Lucy(佩吉)呼吁废除死刑,遇到一个警官的女儿Mercy(玛拉),两人相爱了。而该警官的搭档被一个正要接受死刑的罪犯所杀,Lucy和Mercy立场对立,家人也无法接受这段关系,但她们的感情日益增加……
Video
ID : 1
Format : AVC
Format/Info : Advanced Video Codec
Format profile : [email protected]
Format settings : CABAC / 2 Ref Frames
Format settings, CABAC : Yes
Format settings, Reference frames : 2 frames
Codec ID : V_MPEG4/ISO/AVC
Duration : 1 h 47 min
Bit rate mode : Variable
Bit rate : 20.4 Mb/s
Maximum bit rate : 35.2 Mb/s
Width : 1 920 pixels
Height : 1 080 pixels
Display aspect ratio : 16:9
Frame rate mode : Constant
Frame rate : 24.000 FPS
Color space : YUV
Chroma subsampling : 4:2:0
Bit depth : 8 bits
Scan type : Progressive
Bits/(Pixel*Frame) : 0.410
Stream size : 15.3 GiB (92%)
Title : My.Days.of.Mercy.2017.1080p.BluRay.REMUX.AVC.DTS-HD.MA.5.1-FGT
Language : English
Default : No
Forced : No

Audio
ID : 2
Format : DTS XLL
Format/Info : Digital Theater Systems
Commercial name : DTS-HD Master Audio
Codec ID : A_DTS
Duration : 1 h 47 min
Bit rate mode : Variable
Bit rate : 1 659 kb/s
Channel(s) : 6 channels
Channel layout : C L R Ls Rs LFE
Sampling rate : 48.0 kHz
Frame rate : 93.750 FPS (512 SPF)
Bit depth : 16 bits
Compression mode : Lossless
Stream size : 1.25 GiB (8%)
Title : My.Days.of.Mercy.2017.1080p.BluRay.REMUX.AVC.DTS-HD.MA.5.1-FGT
Language : English
Default : Yes
Forced : No

Text
ID : 3
Format : UTF-8
Codec ID : S_TEXT/UTF8
Codec ID/Info : UTF-8 Plain Text
Duration : 1 h 41 min
Bit rate : 45 b/s
Count of elements : 1109
Stream size : 34.3 KiB (0%)
Language : English
Default : Yes
Forced : No

Menu
00:00:00.000 : en:Chapter 01
00:08:38.208 : en:Chapter 02
00:16:33.750 : en:Chapter 03
00:30:13.083 : en:Chapter 04
00:32:24.833 : en:Chapter 05
00:40:14.250 : en:Chapter 06
00:49:36.666 : en:Chapter 07
00:58:03.583 : en:Chapter 08
01:05:37.583 : en:Chapter 09
01:15:33.500 : en:Chapter 10
01:27:35.625 : en:Chapter 11
01:42:30.333 : en:Chapter 12





1 个附件 售价 大小 下载 时间

My.Days.of.Mercy.2017.1080p.BluRay.REMUX.AVC.DTS-HD.MA.5.1-FGT.torrent 0 金币 83.49K 224 次 11天前

#1楼
发帖时间:2019-12-03 11:24:53   |   回复数:2
tanchoohoon
武林盟主
感谢楼主的无私分享
11天前 #2楼
911degrees
隐世仙人♂
非常感谢,谢谢分享
11天前 #3楼
游客组