coor
武林高手

[更 早] [其他] [剧情] [WEB-1080P] 爱在巴黎/另一部:九个半星期 Another.Nine.And.A.Half.Weeks.1997.1080p.WEBRip.x264-RARBG 2.00GB

-->

帖子完整标题:爱在巴黎/另一部:九个半星期 Another.Nine.And.A.Half.Weeks.1997.1080p.WEBRip.x264-RARBG 2.00GB




◎译  名 爱在巴黎 / 另一部:九个半星期
◎片  名 Love in Paris
◎年  代 1997
◎产  地 法国 / 英国 / 美国
◎类  别 剧情 / 爱情
◎语  言 英语
◎上映日期 2000-06-15
◎IMDb评分 3.0/10 from 3935 users
◎IMDb链接 https://www.imdb.com/title/tt0119576
◎豆瓣评分 4.8/10 from 397 users
◎豆瓣链接 https://movie.douban.com/subject/1293295/
◎片  长 105分钟
◎导  演 Anne Goursaud
◎编  剧 Elizabeth McNeill / Michael Davis
◎主  演 米基·洛克
      安吉·艾佛哈特
      Agathe de La Fontaine
      多格雷·斯科特


◎标  签 情色 | 美国 | 米基.洛克 | 1997 | 剧情 | 爱情 | 我的电影5 | USA

◎简  介

  人人都道约翰(米基·洛克 Mickey Rourke 饰)性情冷淡沉默寡言,但没人知道,造成这一切的原因要归结到一位名叫伊莉莎白(阿加泽·德·拉·方丹 Agathe de La Fontaine 饰)的女子身上。尽管约翰仍旧深深地爱着伊莉莎白,但他们显然早就已经分道扬镳了。
  一次偶然中,一条颇为熟悉的丝巾吸引了约翰的注意,经过辨认,这条丝巾果然为伊莉莎白所有,而如今佩戴着它的,是一个名叫莉亚(安吉·艾佛哈特 Angie Everhart 饰)的漂亮女人。莉亚告诉约翰,伊莉莎白已经不在人世了,但令约翰稍感安慰的是,伊莉莎白和自己一样,亦无法忘却曾经的恋情。一条丝巾和一段往事让约翰和莉亚越走越近,在灰暗的过往面前,这对男女会走向怎样的结局呢?
Video
ID : 1
Format : AVC
Format/Info : Advanced Video Codec
Format profile : [email protected]
Format settings : CABAC / 4 Ref Frames
Format settings, CABAC : Yes
Format settings, Reference frames : 4 frames
Codec ID : avc1
Codec ID/Info : Advanced Video Coding
Duration : 1 h 44 min
Bit rate : 2 500 kb/s
Width : 1 920 pixels
Height : 1 080 pixels
Display aspect ratio : 16:9
Frame rate mode : Constant
Frame rate : 23.976 (23976/1000) FPS
Color space : YUV
Chroma subsampling : 4:2:0
Bit depth : 8 bits
Scan type : Progressive
Bits/(Pixel*Frame) : 0.050
Stream size : 1.83 GiB (92%)
Writing library : x264 core 152 r2851M ba24899
Encoding settings : cabac=1 / ref=4 / deblock=1:-1:-1 / analyse=0x3:0x113 / me=umh / subme=9 / psy=1 / psy_rd=1.00:0.15 / mixed_ref=1 / me_range=24 / chroma_me=1 / trellis=2 / 8x8dct=1 / cqm=0 / deadzone=21,11 / fast_pskip=1 / chroma_qp_offset=-3 / threads=16 / lookahead_threads=4 / sliced_threads=0 / nr=0 / decimate=1 / interlaced=0 / bluray_compat=0 / constrained_intra=0 / bframes=3 / b_pyramid=2 / b_adapt=2 / b_bias=0 / direct=3 / weightb=1 / open_gop=0 / weightp=2 / keyint=250 / keyint_min=25 / scenecut=40 / intra_refresh=0 / rc_lookahead=50 / rc=2pass / mbtree=1 / bitrate=2500 / ratetol=1.0 / qcomp=0.60 / qpmin=0 / qpmax=69 / qpstep=4 / cplxblur=20.0 / qblur=0.5 / vbv_maxrate=31250 / vbv_bufsize=31250 / nal_hrd=none / filler=0 / ip_ratio=1.40 / aq=3:1.00
Encoded date : UTC 2019-12-02 09:37:36
Tagged date : UTC 2019-12-02 09:37:36
Codec configuration box : avcC

Audio
ID : 2
Format : AAC LC
Format/Info : Advanced Audio Codec Low Complexity
Codec ID : mp4a-40-2
Duration : 1 h 44 min
Duration_LastFrame : -11 ms
Bit rate mode : Constant
Bit rate : 224 kb/s
Channel(s) : 2 channels
Channel layout : L R
Sampling rate : 48.0 kHz
Frame rate : 46.875 FPS (1024 SPF)
Compression mode : Lossy
Stream size : 168 MiB (8%)
Language : English
Default : Yes
Alternate group : 1
Encoded date : UTC 2019-12-02 09:37:36
Tagged date : UTC 2019-12-02 09:37:36





1 个附件 售价 大小 下载 时间

Another.Nine.And.A.Half.Weeks.1997.1080p.WEBRip.x264-RARBG.torrent 0 金币 20.62K 700 次 11天前

#1楼
发帖时间:2019-12-02 21:30:52   |   回复数:2
911degrees
隐世仙人♂
非常感谢,谢谢分享
11天前 #2楼
tanchoohoon
武林盟主
感谢楼主的无私分享
11天前 #3楼
游客组