coor
武林高手

[2018] [其他] [其他] [WEB-1080P] 珠峰清道夫/另一种攀登 Death.Zone.Cleaning.Mount.Everest.2018.1080p.AMZN.WEBRip.DDP2.0.x264

-->

帖子完整标题:珠峰清道夫/另一种攀登 Death.Zone.Cleaning.Mount.Everest.2018.1080p.AMZN.WEBRip.DDP2.0.x264-ETHiCS 6.50GB




◎译  名 珠峰清道夫 / 另一种攀登
◎片  名 Death Zone: Cleaning Mount Everest
◎年  代 2018
◎产  地 尼泊尔
◎类  别 纪录片
◎语  言 尼泊尔语
◎上映日期 2018-04-20(北京电影节)
◎IMDb评分 7.7/10 from 108 users
◎IMDb链接 https://www.imdb.com/title/tt1999130
◎豆瓣评分 9.0/10 from 4711 users
◎豆瓣链接 https://movie.douban.com/subject/30167539/
◎片  长 99分钟
◎导  演 玛丽娜马丁斯 Marina Martins
◎编  剧 玛丽娜马丁斯 Marina Martins
◎主  演 纳格尔·夏尔巴 Namgyal Sherpa
      查克拉·B·卡基 Chakra B. Karki
      帕特里克·斯图尔特 Patrick Stewart


◎标  签 纪录片 | 环保 | 珠峰 | 尼泊尔 | 登山 | 夏尔巴人 | 探险 | 2018

◎简  介

  一支由20位登山专家组成的尼泊尔探险队出发前往圣母峰的「死亡地带」,为的是清除超过海拔8000公尺的世界最高垃圾堆,恢复这座神圣山峰的风采和消除1.3亿人赖以生存的水源污染。「死亡地带」名称的由来是因为该区氧气极为稀薄、气温极低而且地形险恶。虽然陆续有清理行动,一点一滴的将垃圾带下山,但从没有人敢夸口说真的解决了「死亡地带」的污染问题,在那里有150具遇难的登山者尸体和超过100,000磅垃圾。这次登山队再次攀登到了最高峰,并记录下了一场生与死的旅程。

◎获奖情况

  第5届豆瓣电影年度榜单(2018)
  评分最高的纪录片(提名)
Video
ID : 1
Format : AVC
Format/Info : Advanced Video Codec
Format profile : [email protected]
Format settings : CABAC / 4 Ref Frames
Format settings, CABAC : Yes
Format settings, Reference frames : 4 frames
Codec ID : V_MPEG4/ISO/AVC
Duration : 1 h 41 min
Bit rate mode : Constant
Bit rate : 8 989 kb/s
Nominal bit rate : 10 000 kb/s
Width : 1 920 pixels
Height : 1 080 pixels
Display aspect ratio : 16:9
Frame rate mode : Constant
Frame rate : 23.976 (24000/1001) FPS
Color space : YUV
Chroma subsampling : 4:2:0
Bit depth : 8 bits
Scan type : Progressive
Bits/(Pixel*Frame) : 0.181
Stream size : 6.34 GiB (98%)
Default : Yes
Forced : No
Color range : Limited
Color primaries : BT.709
Transfer characteristics : BT.709
Matrix coefficients : BT.709

Audio
ID : 2
Format : E-AC-3
Format/Info : Enhanced AC-3
Commercial name : Dolby Digital Plus
Codec ID : A_EAC3
Duration : 1 h 41 min
Bit rate mode : Constant
Bit rate : 224 kb/s
Channel(s) : 2 channels
Channel layout : L R
Sampling rate : 48.0 kHz
Frame rate : 31.250 FPS (1536 SPF)
Compression mode : Lossy
Stream size : 162 MiB (2%)
Language : English
Service kind : Complete Main
Default : Yes
Forced : No

Text
ID : 3
Format : UTF-8
Codec ID : S_TEXT/UTF8
Codec ID/Info : UTF-8 Plain Text
Duration : 1 h 40 min
Bit rate : 35 b/s
Count of elements : 737
Stream size : 26.3 KiB (0%)
Title : English [CC](SDH)
Language : English
Default : Yes
Forced : No





1 个附件 售价 大小 下载 时间

Death.Zone.Cleaning.Mount.Everest.2018.1080p.AMZN.WEBRip.DDP2.0.x264-ETHiCS.torrent 0 金币 33.09K 574 次 11天前

#1楼
发帖时间:2019-12-02 21:24:58   |   回复数:3
jokingcheung
一代宗师
谢谢分享
11天前 #2楼
911degrees
隐世仙人♂
非常感谢,谢谢分享
11天前 #3楼
blj2007
一派掌门
感谢分享,辛苦啦
11天前 #4楼
游客组