coor
武林高手

[2015] [欧美] [其他] [WEB-1080P] 牙买加黑手党 Jamaican.Mafia.2015.1080p.AMZN.WEBRip.DDP2.0.x264-ETHiCS 7.87GB

-->

帖子完整标题:牙买加黑手党 Jamaican.Mafia.2015.1080p.AMZN.WEBRip.DDP2.0.x264-ETHiCS 7.87GB




◎译  名 牙买加黑手党
◎片  名 Jamaican Mafia
◎年  代 2015
◎产  地 美国
◎类  别 犯罪
◎语  言 英语
◎上映日期 2015-11-27(美国)
◎IMDb评分 6.4/10 from 78 users
◎IMDb链接 https://www.imdb.com/title/tt3629834
◎豆瓣评分 0/10 from 0 users
◎豆瓣链接 https://movie.douban.com/subject/26715164/
◎导  演 Vafomba Donzo
◎编  剧 Mykal Fax
◎主  演 David Squeeze Annakie
      John Bling Bennett
      Robert Braxton


◎简  介

  Jamaican Mafia is a gangster-thriller movie in the vein of Goodfellas and Shottas, which follows Zoolian Anderson (Zoo-Zoo), a frustrated Car Salesman who desperately desires riches and respect, and discovers he's the nephew of a powerful crime-boss when he decides to quit the corporate world to join the illicit organization better known as the 'Jamaican Mafia'.
Video
ID : 1
Format : AVC
Format/Info : Advanced Video Codec
Format profile : [email protected]
Format settings : CABAC / 4 Ref Frames
Format settings, CABAC : Yes
Format settings, Reference frames : 4 frames
Codec ID : V_MPEG4/ISO/AVC
Duration : 2 h 26 min
Bit rate mode : Constant
Bit rate : 7 475 kb/s
Nominal bit rate : 10 000 kb/s
Width : 1 920 pixels
Height : 1 080 pixels
Display aspect ratio : 16:9
Frame rate mode : Constant
Frame rate : 29.970 (30000/1001) FPS
Color space : YUV
Chroma subsampling : 4:2:0
Bit depth : 8 bits
Scan type : Progressive
Bits/(Pixel*Frame) : 0.120
Stream size : 7.64 GiB (97%)
Default : Yes
Forced : No
Color range : Limited
Color primaries : BT.709
Transfer characteristics : BT.709
Matrix coefficients : BT.709

Audio
ID : 2
Format : E-AC-3
Format/Info : Enhanced AC-3
Commercial name : Dolby Digital Plus
Codec ID : A_EAC3
Duration : 2 h 26 min
Bit rate mode : Constant
Bit rate : 224 kb/s
Channel(s) : 2 channels
Channel layout : L R
Sampling rate : 48.0 kHz
Frame rate : 31.250 FPS (1536 SPF)
Compression mode : Lossy
Stream size : 234 MiB (3%)
Language : English
Service kind : Complete Main
Default : Yes
Forced : No

Text
ID : 3
Format : UTF-8
Codec ID : S_TEXT/UTF8
Codec ID/Info : UTF-8 Plain Text
Duration : 2 h 26 min
Bit rate : 47 b/s
Count of elements : 1747
Stream size : 50.7 KiB (0%)
Title : English [CC](SDH)
Language : English
Default : Yes
Forced : No





1 个附件 售价 大小 下载 时间

Jamaican.Mafia.2015.1080p.AMZN.WEBRip.DDP2.0.x264-ETHiCS.torrent 0 金币 39.89K 280 次 12天前

#1楼
发帖时间:2019-12-02 21:16:17   |   回复数:2
911degrees
隐世仙人♂
非常感谢,谢谢分享
11天前 #2楼
yangbo83222179
一代宗师
谢谢楼主分享
11天前 #3楼
游客组