conanlcg
超级版主

[2011] [其他] [其他] [WEB-1080P] 希特勒的子孙们/希特勒的孩子 Hitlers.Children.2011.SUBBED.1080p.AMZN.WEBRip.DDP2.0.x264-NTb 6.

-->

帖子完整标题:希特勒的子孙们/希特勒的孩子 Hitlers.Children.2011.SUBBED.1080p.AMZN.WEBRip.DDP2.0.x264-NTb 6.18GB




◎译  名 希特勒的子孙们 / 希特勒的孩子
◎片  名 Hitler's Children
◎年  代 2011
◎产  地 以色列 Israel / 美国 / 德国
◎类  别 纪录片
◎语  言 英语 / 德语
◎上映日期 2011-09-21(荷兰) / 2012-03-10(捷克共和国) / 2012-10-18(美国)
◎IMDb评分 7.4/10 from 1115 users
◎IMDb链接 https://www.imdb.com/title/tt2359085
◎豆瓣评分 8.3/10 from 69 users
◎豆瓣链接 https://movie.douban.com/subject/10811424/
◎片  长 59分钟
◎导  演 Chanoch Zeevi
◎主  演 Bettina Goering
      Katrin Himmler
      Rainer Hoess
      Eldad Beck
      Monika Goeth
      Adi Goering
      Yael Bedarshi


◎标  签 纪录片 | 德国 | 以色列 | 二战 | 政治 | 美国 | 社会 | 大屠杀

◎简  介

  五个名字,记载一段无法抹灭的过去。纳粹德国进行灭种计划,导致六百万名犹太人在十二年间遭到杀害。当初建造奥斯威辛集中营的军官的外甥女,和其他四位服膺于希特勒的领导人后裔,一起揭开自己的家族密辛。导演透过世代关系,让我们见证德国如何面对历史伤痕。
Video
ID : 1
Format : AVC
Format/Info : Advanced Video Codec
Format profile : [email protected]
Format settings : CABAC / 4 Ref Frames
Format settings, CABAC : Yes
Format settings, Reference frames : 4 frames
Codec ID : V_MPEG4/ISO/AVC
Duration : 1 h 23 min
Bit rate mode : Variable
Bit rate : 10.4 Mb/s
Maximum bit rate : 15.0 Mb/s
Width : 1 920 pixels
Height : 1 080 pixels
Display aspect ratio : 16:9
Frame rate mode : Constant
Frame rate : 23.976 (24000/1001) FPS
Color space : YUV
Chroma subsampling : 4:2:0
Bit depth : 8 bits
Scan type : Progressive
Bits/(Pixel*Frame) : 0.210
Stream size : 6.05 GiB (98%)
Writing library : x264 core 148 r2623 d5b2374
Encoding settings : cabac=1 / ref=4 / deblock=1:-1:-1 / analyse=0x3:0x133 / me=umh / subme=9 / psy=1 / psy_rd=1.00:0.15 / mixed_ref=1 / me_range=24 / chroma_me=1 / trellis=2 / 8x8dct=1 / cqm=0 / deadzone=21,11 / fast_pskip=1 / chroma_qp_offset=-3 / threads=34 / lookahead_threads=5 / sliced_threads=0 / nr=150 / decimate=1 / interlaced=0 / bluray_compat=0 / constrained_intra=0 / bframes=8 / b_pyramid=2 / b_adapt=2 / b_bias=0 / direct=3 / weightb=1 / open_gop=0 / weightp=2 / keyint=120 / keyint_min=61 / scenecut=0 / intra_refresh=0 / rc_lookahead=120 / rc=crf / mbtree=1 / crf=18.0 / qcomp=0.60 / qpmin=0 / qpmax=69 / qpstep=4 / vbv_maxrate=15000 / vbv_bufsize=31250 / crf_max=0.0 / nal_hrd=vbr / filler=0 / ip_ratio=1.40 / aq=3:1.00
Default : Yes
Forced : No
Color range : Limited
Color primaries : BT.709
Transfer characteristics : BT.709
Matrix coefficients : BT.709

Audio
ID : 2
Format : E-AC-3
Format/Info : Enhanced AC-3
Commercial name : Dolby Digital Plus
Codec ID : A_EAC3
Duration : 1 h 23 min
Bit rate mode : Constant
Bit rate : 224 kb/s
Channel(s) : 2 channels
Channel layout : L R
Sampling rate : 48.0 kHz
Frame rate : 31.250 FPS (1536 SPF)
Compression mode : Lossy
Stream size : 133 MiB (2%)
Language : English
Service kind : Complete Main
Default : Yes
Forced : No





1 个附件 售价 大小 下载 时间

Hitlers.Children.2011.SUBBED.1080p.AMZN.WEBRip.DDP2.0.x264-NTb.torrent 0 金币 31.43K 273 次 24天前

#1楼
发帖时间:2019-11-11 21:28:51   |   回复数:1
911degrees
隐世仙人♂
非常感谢,谢谢分享
24天前 #2楼
游客组