conanlcg
超级版主

[2015] [其他] [其他] [BD-1080P] 两个伙伴和一只獾 Two.Buddies.and.a.Badger.2015.NORWEGIAN.1080p.BluRay.x264-HANDJOB 5.86G

-->

帖子完整标题:两个伙伴和一只獾 Two.Buddies.and.a.Badger.2015.NORWEGIAN.1080p.BluRay.x264-HANDJOB 5.86GB




◎译  名 两个伙伴和一只獾 / Two Buddies and a Badger
◎片  名 Knutsen & Ludvigsen og den f?le Rasputin
◎年  代 2015
◎产  地 挪威
◎类  别 动画 / 奇幻 / 冒险
◎语  言 挪威语 / 英语
◎上映日期 2015-09-25(挪威)
◎IMDb评分 5.8/10 from 219 users
◎IMDb链接 https://www.imdb.com/title/tt3431188
◎豆瓣评分 0/10 from 0 users
◎豆瓣链接 https://movie.douban.com/subject/33412250/
◎片  长 75分钟
◎导  演 拉斯姆斯·A·西韦特森 Rasmus A. Sivertsen / Rune Spaans
◎编  剧 ?ystein Dolmen / 托马斯·莫尔德斯塔德 Thomas Moldestad
◎主  演 John F. Brungot
      Hermann Sabado
      Siri Nilsen


◎标  签 挪威 | 动画 | 挪威动画电影 | 2015 | 挪威电影 | chc | 奇幻 | 冒险

◎简  介

  这是一部关于两位老朋友和一位开始过度冒险的獾的滑稽音乐公路电影。由挪威世界闻名的音乐二人组Knutsen&Ludvigsen主演。
Video
ID : 1
Format : AVC
Format/Info : Advanced Video Codec
Format profile : [email protected]
Format settings : CABAC / 4 Ref Frames
Format settings, CABAC : Yes
Format settings, Reference frames : 4 frames
Codec ID : V_MPEG4/ISO/AVC
Duration : 1 h 15 min
Bit rate : 10.5 Mb/s
Width : 1 920 pixels
Height : 1 038 pixels
Display aspect ratio : 1.85:1
Frame rate mode : Constant
Frame rate : 24.000 FPS
Color space : YUV
Chroma subsampling : 4:2:0
Bit depth : 8 bits
Scan type : Progressive
Bits/(Pixel*Frame) : 0.220
Stream size : 5.52 GiB (94%)
Writing library : x264 core 157 r2935 545de2f
Encoding settings : cabac=1 / ref=4 / deblock=1:-3:-3 / analyse=0x3:0x133 / me=umh / subme=10 / psy=1 / psy_rd=1.00:0.00 / mixed_ref=1 / me_range=32 / chroma_me=1 / trellis=2 / 8x8dct=1 / cqm=0 / deadzone=21,11 / fast_pskip=0 / chroma_qp_offset=-2 / threads=12 / lookahead_threads=3 / sliced_threads=0 / nr=0 / decimate=0 / interlaced=0 / bluray_compat=0 / constrained_intra=0 / bframes=16 / b_pyramid=2 / b_adapt=2 / b_bias=0 / direct=3 / weightb=1 / open_gop=0 / weightp=2 / keyint=240 / keyint_min=24 / scenecut=40 / intra_refresh=0 / rc_lookahead=60 / rc=crf / mbtree=0 / crf=18.2 / qcomp=0.60 / qpmin=0 / qpmax=69 / qpstep=4 / vbv_maxrate=62500 / vbv_bufsize=78125 / crf_max=0.0 / nal_hrd=none / filler=0 / ip_ratio=1.40 / pb_ratio=1.30 / aq=2:1.00
Default : Yes
Forced : No
Color range : Limited
Color primaries : BT.709
Transfer characteristics : BT.709
Matrix coefficients : BT.709

Audio
ID : 2
Format : AC-3
Format/Info : Audio Coding 3
Commercial name : Dolby Digital
Codec ID : A_AC3
Duration : 1 h 15 min
Bit rate mode : Constant
Bit rate : 640 kb/s
Channel(s) : 6 channels
Channel layout : L R C LFE Ls Rs
Sampling rate : 48.0 kHz
Frame rate : 31.250 FPS (1536 SPF)
Bit depth : 16 bits
Compression mode : Lossy
Stream size : 344 MiB (6%)
Language : Norwegian
Service kind : Complete Main
Default : Yes
Forced : No

Text #1
ID : 3
Format : UTF-8
Codec ID : S_TEXT/UTF8
Codec ID/Info : UTF-8 Plain Text
Duration : 1 h 13 min
Bit rate : 54 b/s
Count of elements : 677
Stream size : 29.4 KiB (0%)
Title : English
Language : English
Default : Yes
Forced : No

Text #2
ID : 4
Format : UTF-8
Codec ID : S_TEXT/UTF8
Codec ID/Info : UTF-8 Plain Text
Duration : 1 h 13 min
Bit rate : 54 b/s
Count of elements : 676
Stream size : 29.5 KiB (0%)
Title : Norsk
Language : Norwegian
Default : No
Forced : No

Menu
00:00:00.000 : :Chapter 1
00:05:36.625 : :Chapter 2
00:09:32.292 : :Chapter 3
00:14:08.458 : :Chapter 4
00:21:04.042 : :Chapter 5
00:26:57.792 : :Chapter 6
00:33:04.167 : :Chapter 7
00:37:38.958 : :Chapter 8
00:42:38.708 : :Chapter 9
00:46:21.000 : :Chapter 10
00:51:29.333 : :Chapter 11
00:55:33.667 : :Chapter 12
00:58:18.708 : :Chapter 13
01:02:39.917 : :Chapter 14
01:06:59.917 : :Chapter 15
01:10:45.417 : :Chapter 16





1 个附件 售价 大小 下载 时间

Two.Buddies.and.a.Badger.2015.NORWEGIAN.1080p.BluRay.x264-HANDJOB.torrent 0 金币 29.85K 252 次 25天前

#1楼
发帖时间:2019-11-11 08:20:02   |   回复数:2
亚瑟王
一派掌门
谢谢楼主分享
25天前 #2楼
911degrees
隐世仙人♂
非常感谢,谢谢分享
25天前 #3楼
游客组