conanlcg
超级版主

[2019] [其他] [其他] [WEB-720P] 暗海/海豚守護戰(港) Sea.of.Shadows.2019.720p.WEBRip.x264-CAFFEiNE 2.87GB

-->

帖子完整标题:暗海/海豚守護戰(港) Sea.of.Shadows.2019.720p.WEBRip.x264-CAFFEiNE 2.87GB




◎译  名 暗海 / 海豚守護戰(港)
◎片  名 Sea of Shadows
◎年  代 2019
◎产  地 奥地利
◎类  别 纪录片
◎语  言 英语
◎上映日期 2019-01-27(圣丹斯电影节)
◎IMDb评分 7.4/10 from 178 users
◎IMDb链接 https://www.imdb.com/title/tt9326056
◎豆瓣评分 0/10 from 0 users
◎豆瓣链接 https://movie.douban.com/subject/30391730/
◎片  长 104分钟
◎导  演 Richard Ladkani
◎主  演 Carlos Loret de Mola
      Andrea Crosta
      Jack Hutton
      Alan Valverde
      Javier Valverde
      Cynthia Smith


◎标  签 纪录片 | 环保 | 2019 | 奥地利 | 走私 | 灭绝 | RichardLadkani | HKIFF

◎简  介

  救救加灣鼠海豚!因石首魚的魚鰾可製成名貴血花膠,漁民利用刺網非法捕獵,活在同一海域的加灣鼠海豚亦連帶遭殃,正瀕臨絕種只剩十五條。要打擊濫捕濫殺殊不容易,對手是墨西哥毒梟與中國走私集團,視血花膠如海中的可卡因。科學家、新聞工作者及環保人士,決心展開保衛戰。里安納度監製,李察朗康尼精心部署拍攝,拍出恍如《毒裁者》(2015)的驚險,臥底搜證,軍警與罪犯開戰,保衛者出海巡邏,只是為了令加灣鼠海豚逃離悲慘命運,存活下去。

◎获奖情况

  第35届圣丹斯电影节(2019)
  评审团大奖 世界电影单元纪录片(提名) 理查德·拉德卡尼
  观众奖 世界电影单元纪录片 理查德·拉德卡尼

  第43届香港国际电影节(2019)
  纪录片竞赛 火鸟大奖(提名) 理查德·拉德卡尼
Video
ID : 3
Format : AVC
Format/Info : Advanced Video Codec
Format profile : [email protected]
Format settings : CABAC / 5 Ref Frames
Format settings, CABAC : Yes
Format settings, Reference frames : 5 frames
Codec ID : V_MPEG4/ISO/AVC
Duration : 1 h 43 min
Bit rate : 3 852 kb/s
Width : 1 280 pixels
Height : 720 pixels
Display aspect ratio : 16:9
Frame rate mode : Constant
Frame rate : 23.976 (24000/1001) FPS
Color space : YUV
Chroma subsampling : 4:2:0
Bit depth : 8 bits
Scan type : Progressive
Bits/(Pixel*Frame) : 0.174
Stream size : 2.78 GiB (97%)
Writing library : x264 core 158 r2984 3759fcb
Encoding settings : cabac=1 / ref=5 / deblock=1:-3:-3 / analyse=0x3:0x113 / me=hex / subme=8 / psy=1 / psy_rd=1.00:0.00 / mixed_ref=1 / me_range=16 / chroma_me=1 / trellis=2 / 8x8dct=1 / cqm=0 / deadzone=21,11 / fast_pskip=1 / chroma_qp_offset=-2 / threads=34 / lookahead_threads=5 / sliced_threads=0 / nr=0 / decimate=1 / interlaced=0 / bluray_compat=0 / constrained_intra=0 / bframes=3 / b_pyramid=2 / b_adapt=2 / b_bias=0 / direct=3 / weightb=1 / open_gop=0 / weightp=2 / keyint=250 / keyint_min=25 / scenecut=40 / intra_refresh=0 / rc_lookahead=50 / rc=crf / mbtree=1 / crf=18.0 / qcomp=0.60 / qpmin=0 / qpmax=69 / qpstep=4 / ip_ratio=1.40 / aq=1:1.00
Language : English
Default : Yes
Forced : No
Color range : Limited
Matrix coefficients : BT.709

Audio
ID : 2
Format : AAC LC SBR
Format/Info : Advanced Audio Codec Low Complexity with Spectral Band Replication
Commercial name : HE-AAC
Format settings : Explicit
Codec ID : A_AAC-2
Duration : 1 h 43 min
Bit rate : 127 kb/s
Channel(s) : 2 channels
Channel layout : L R
Sampling rate : 48.0 kHz
Frame rate : 23.438 FPS (2048 SPF)
Compression mode : Lossy
Stream size : 93.7 MiB (3%)
Language : English
Default : Yes
Forced : No

Text
ID : 1
Format : UTF-8
Codec ID : S_TEXT/UTF8
Codec ID/Info : UTF-8 Plain Text
Duration : 1 h 40 min
Bit rate : 62 b/s
Count of elements : 996
Stream size : 45.8 KiB (0%)
Language : English
Default : No
Forced : No





1 个附件 售价 大小 下载 时间

Sea.of.Shadows.2019.720p.WEBRip.x264-CAFFEiNE.torrent 0 金币 29.44K 329 次 25天前

#1楼
发帖时间:2019-11-11 05:36:02   |   回复数:2
911degrees
隐世仙人♂
非常感谢,谢谢分享
25天前 #2楼
kola13
一派掌门
感谢分享
25天前 #3楼
游客组