conanlcg
超级版主

[2018] [其他] [动作] [WEB-1080P] 天堂海岸 Paradise.Beach.2019.DUBBED.1080p.NF.WEBRip.DDP5.1.x264-CM 3.45GB

-->

帖子完整标题:天堂海岸 Paradise.Beach.2019.DUBBED.1080p.NF.WEBRip.DDP5.1.x264-CM 3.45GB




◎译  名 天堂海岸
◎片  名 Paradise beach
◎年  代 2018
◎产  地 法国
◎类  别 动作 / 惊悚
◎语  言 法语
◎上映日期 2019-02-20(法国)
◎IMDb评分 4.7/10 from 80 users
◎IMDb链接 https://www.imdb.com/title/tt7511008
◎豆瓣评分 0/10 from 0 users
◎豆瓣链接 https://movie.douban.com/subject/30173637/
◎片  长 93分钟
◎导  演 格扎维埃·杜兰热 Xavier Durringer
◎编  剧 格扎维埃·杜兰热 Xavier Durringer
◎主  演 雨果·贝克 Hugo Becker
      哈勃·孔黛 Hubert Koundé
      塞米·鲍亚吉拉 Sami Bouajila
      梅拉妮·杜泰 Mélanie Doutey
      陶菲克·杰拉巴 Tewfik Jallab
      Flore Bonaventura
      布鲁诺·洛普斯 Kool Shen
      Seth Gueko


◎标  签 剧情

◎简  介

  从监狱里出来后,梅迪打算清算旧账。但首先,他必须与他的帮派恢复联系,而那群人正悠闲地住在一处优美的泰国海滨度假村。
Video
ID : 1
Format : AVC
Format/Info : Advanced Video Codec
Format profile : [email protected]
Format settings : CABAC / 3 Ref Frames
Format settings, CABAC : Yes
Format settings, Reference frames : 3 frames
Codec ID : V_MPEG4/ISO/AVC
Duration : 1 h 34 min
Bit rate mode : Variable
Bit rate : 4 640 kb/s
Maximum bit rate : 6 960 kb/s
Width : 1 920 pixels
Height : 1 080 pixels
Display aspect ratio : 16:9
Frame rate mode : Constant
Frame rate : 24.000 FPS
Color space : YUV
Chroma subsampling : 4:2:0
Bit depth : 8 bits
Scan type : Progressive
Bits/(Pixel*Frame) : 0.093
Stream size : 3.03 GiB (88%)
Writing library : x264 core 148 r2715 7e75228
Encoding settings : cabac=1 / ref=3 / deblock=1:0:0 / analyse=0x1:0x111 / me=umh / subme=10 / psy=1 / psy_rd=1.00:0.00 / mixed_ref=1 / me_range=24 / chroma_me=1 / trellis=2 / 8x8dct=0 / cqm=0 / deadzone=21,11 / fast_pskip=1 / chroma_qp_offset=-2 / threads=6 / lookahead_threads=1 / sliced_threads=0 / nr=0 / decimate=1 / interlaced=0 / bluray_compat=0 / stitchable=1 / constrained_intra=0 / bframes=2 / b_pyramid=0 / b_adapt=2 / b_bias=0 / direct=3 / weightb=1 / open_gop=0 / weightp=2 / keyint=250 / keyint_min=24 / scenecut=0 / intra_refresh=0 / rc_lookahead=48 / rc=2pass / mbtree=1 / bitrate=4640 / ratetol=1.0 / qcomp=0.50 / qpmin=6 / qpmax=51 / qpstep=4 / cplxblur=20.0 / qblur=0.5 / vbv_maxrate=6960 / vbv_bufsize=9280 / nal_hrd=vbr / filler=0 / ip_ratio=1.40 / aq=1:1.00
Default : Yes
Forced : No

Audio
ID : 2
Format : E-AC-3
Format/Info : Enhanced AC-3
Commercial name : Dolby Digital Plus
Codec ID : A_EAC3
Duration : 1 h 34 min
Bit rate mode : Constant
Bit rate : 640 kb/s
Channel(s) : 6 channels
Channel layout : L R C LFE Ls Rs
Sampling rate : 48.0 kHz
Frame rate : 31.250 FPS (1536 SPF)
Compression mode : Lossy
Stream size : 431 MiB (12%)
Title : English
Language : English
Service kind : Complete Main
Default : Yes
Forced : No

Text #1
ID : 3
Format : UTF-8
Codec ID : S_TEXT/UTF8
Codec ID/Info : UTF-8 Plain Text
Duration : 1 h 27 min
Bit rate : 37 b/s
Count of elements : 869
Stream size : 23.8 KiB (0%)
Title : English
Language : English
Default : Yes
Forced : No

Text #2
ID : 4
Format : UTF-8
Codec ID : S_TEXT/UTF8
Codec ID/Info : UTF-8 Plain Text
Duration : 1 h 28 min
Bit rate : 46 b/s
Count of elements : 1051
Stream size : 30.2 KiB (0%)
Title : Castilian
Language : Spanish
Default : No
Forced : No

Text #3
ID : 5
Format : UTF-8
Codec ID : S_TEXT/UTF8
Codec ID/Info : UTF-8 Plain Text
Duration : 1 h 28 min
Bit rate : 45 b/s
Count of elements : 1052
Stream size : 29.6 KiB (0%)
Title : Spanish
Language : Spanish
Default : No
Forced : No

Text #4
ID : 6
Format : UTF-8
Codec ID : S_TEXT/UTF8
Codec ID/Info : UTF-8 Plain Text
Duration : 1 h 24 min
Bit rate : 8 b/s
Count of elements : 173
Stream size : 5.24 KiB (0%)
Title : French [Forced]
Language : French
Default : No
Forced : Yes

Text #5
ID : 7
Format : UTF-8
Codec ID : S_TEXT/UTF8
Codec ID/Info : UTF-8 Plain Text
Duration : 1 h 32 min
Bit rate : 66 b/s
Count of elements : 1295
Stream size : 45.3 KiB (0%)
Title : French
Language : French
Default : No
Forced : No

Text #6
ID : 8
Format : UTF-8
Codec ID : S_TEXT/UTF8
Codec ID/Info : UTF-8 Plain Text
Duration : 1 h 28 min
Bit rate : 46 b/s
Count of elements : 1037
Stream size : 30.1 KiB (0%)
Title : German
Language : German
Default : No
Forced : No

Text #7
ID : 9
Format : UTF-8
Codec ID : S_TEXT/UTF8
Codec ID/Info : UTF-8 Plain Text
Duration : 1 h 28 min
Bit rate : 45 b/s
Count of elements : 1046
Stream size : 29.2 KiB (0%)
Title : Italian
Language : Italian
Default : No
Forced : No

Text #8
ID : 10
Format : UTF-8
Codec ID : S_TEXT/UTF8
Codec ID/Info : UTF-8 Plain Text
Duration : 1 h 28 min
Bit rate : 44 b/s
Count of elements : 1051
Stream size : 28.9 KiB (0%)
Title : Portuguese
Language : Portuguese
Default : No
Forced : No

Text #9
ID : 11
Format : UTF-8
Codec ID : S_TEXT/UTF8
Codec ID/Info : UTF-8 Plain Text
Duration : 1 h 28 min
Bit rate : 41 b/s
Count of elements : 1049
Stream size : 27.0 KiB (0%)
Title : Brazilian Portuguese
Language : Portuguese
Default : No
Forced : No

Text #10
ID : 12
Format : UTF-8
Codec ID : S_TEXT/UTF8
Codec ID/Info : UTF-8 Plain Text
Duration : 1 h 28 min
Bit rate : 38 b/s
Count of elements : 1046
Stream size : 24.9 KiB (0%)
Title : Polish
Language : Polish
Default : No
Forced : No

Text #11
ID : 13
Format : UTF-8
Codec ID : S_TEXT/UTF8
Codec ID/Info : UTF-8 Plain Text
Duration : 1 h 28 min
Bit rate : 46 b/s
Count of elements : 1050
Stream size : 30.1 KiB (0%)
Title : Turkish
Language : Turkish
Default : No
Forced : No

Text #12
ID : 14
Format : UTF-8
Codec ID : S_TEXT/UTF8
Codec ID/Info : UTF-8 Plain Text
Duration : 1 h 28 min
Bit rate : 44 b/s
Count of elements : 1047
Stream size : 28.4 KiB (0%)
Title : Swedish
Language : Swedish
Default : No
Forced : No

Text #13
ID : 15
Format : UTF-8
Codec ID : S_TEXT/UTF8
Codec ID/Info : UTF-8 Plain Text
Duration : 1 h 28 min
Bit rate : 44 b/s
Count of elements : 1044
Stream size : 28.7 KiB (0%)
Title : Danish
Language : Danish
Default : No
Forced : No

Text #14
ID : 16
Format : UTF-8
Codec ID : S_TEXT/UTF8
Codec ID/Info : UTF-8 Plain Text
Duration : 1 h 28 min
Bit rate : 43 b/s
Count of elements : 1045
Stream size : 28.3 KiB (0%)
Title : Finnish
Language : Finnish
Default : No
Forced : No

Text #15
ID : 17
Format : UTF-8
Codec ID : S_TEXT/UTF8
Codec ID/Info : UTF-8 Plain Text
Duration : 1 h 28 min
Bit rate : 42 b/s
Count of elements : 1028
Stream size : 27.4 KiB (0%)
Title : Dutch
Language : Dutch
Default : No
Forced : No

Text #16
ID : 18
Format : UTF-8
Codec ID : S_TEXT/UTF8
Codec ID/Info : UTF-8 Plain Text
Duration : 1 h 28 min
Bit rate : 44 b/s
Count of elements : 1044
Stream size : 28.6 KiB (0%)
Title : Norwegian
Language : Norwegian
Default : No
Forced : No

Text #17
ID : 19
Format : UTF-8
Codec ID : S_TEXT/UTF8
Codec ID/Info : UTF-8 Plain Text
Duration : 1 h 28 min
Bit rate : 70 b/s
Count of elements : 1052
Stream size : 45.5 KiB (0%)
Title : Russian
Language : Russian
Default : No
Forced : No

Text #18
ID : 20
Format : UTF-8
Codec ID : S_TEXT/UTF8
Codec ID/Info : UTF-8 Plain Text
Duration : 1 h 28 min
Bit rate : 42 b/s
Count of elements : 1042
Stream size : 27.3 KiB (0%)
Title : Hungarian
Language : Hungarian
Default : No
Forced : No

Text #19
ID : 21
Format : UTF-8
Codec ID : S_TEXT/UTF8
Codec ID/Info : UTF-8 Plain Text
Duration : 1 h 28 min
Bit rate : 76 b/s
Count of elements : 1050
Stream size : 49.7 KiB (0%)
Title : Greek
Language : Greek
Default : No
Forced : No

Text #20
ID : 22
Format : UTF-8
Codec ID : S_TEXT/UTF8
Codec ID/Info : UTF-8 Plain Text
Duration : 1 h 28 min
Bit rate : 65 b/s
Count of elements : 1053
Stream size : 42.4 KiB (0%)
Title : Hebrew
Language : Hebrew
Default : No
Forced : No

Text #21
ID : 23
Format : UTF-8
Codec ID : S_TEXT/UTF8
Codec ID/Info : UTF-8 Plain Text
Duration : 1 h 28 min
Bit rate : 72 b/s
Count of elements : 1053
Stream size : 46.7 KiB (0%)
Title : Arabic
Language : Arabic
Default : No
Forced : No

Text #22
ID : 24
Format : UTF-8
Codec ID : S_TEXT/UTF8
Codec ID/Info : UTF-8 Plain Text
Duration : 1 h 28 min
Bit rate : 51 b/s
Count of elements : 1047
Stream size : 33.1 KiB (0%)
Title : Romanian
Language : Romanian
Default : No
Forced : No

Text #23
ID : 25
Format : UTF-8
Codec ID : S_TEXT/UTF8
Codec ID/Info : UTF-8 Plain Text
Duration : 1 h 28 min
Bit rate : 42 b/s
Count of elements : 1051
Stream size : 27.2 KiB (0%)
Title : Czech
Language : Czech
Default : No
Forced : No

Text #24
ID : 26
Format : UTF-8
Codec ID : S_TEXT/UTF8
Codec ID/Info : UTF-8 Plain Text
Duration : 1 h 28 min
Bit rate : 40 b/s
Count of elements : 1051
Stream size : 26.0 KiB (0%)
Title : Indonesian
Language : Indonesian
Default : No
Forced : No

Text #25
ID : 27
Format : UTF-8
Codec ID : S_TEXT/UTF8
Codec ID/Info : UTF-8 Plain Text
Duration : 1 h 28 min
Bit rate : 64 b/s
Count of elements : 1052
Stream size : 41.7 KiB (0%)
Title : Vietnamese
Language : Vietnamese
Default : No
Forced : No

Text #26
ID : 28
Format : UTF-8
Codec ID : S_TEXT/UTF8
Codec ID/Info : UTF-8 Plain Text
Duration : 1 h 28 min
Bit rate : 110 b/s
Count of elements : 1010
Stream size : 71.2 KiB (0%)
Title : Thai
Language : Thai
Default : No
Forced : No

Text #27
ID : 29
Format : UTF-8
Codec ID : S_TEXT/UTF8
Codec ID/Info : UTF-8 Plain Text
Duration : 1 h 28 min
Bit rate : 55 b/s
Count of elements : 1053
Stream size : 36.1 KiB (0%)
Title : Korean
Language : Korean
Default : No
Forced : No

Text #28
ID : 30
Format : UTF-8
Codec ID : S_TEXT/UTF8
Codec ID/Info : UTF-8 Plain Text
Duration : 1 h 28 min
Bit rate : 52 b/s
Count of elements : 1053
Stream size : 34.1 KiB (0%)
Title : Chinese (Simplified)
Language : Chinese
Default : No
Forced : No

Text #29
ID : 31
Format : UTF-8
Codec ID : S_TEXT/UTF8
Codec ID/Info : UTF-8 Plain Text
Duration : 1 h 28 min
Bit rate : 48 b/s
Count of elements : 1052
Stream size : 31.4 KiB (0%)
Title : Chinese (Traditional)
Language : Chinese
Default : No
Forced : No

Text #30
ID : 32
Format : UTF-8
Codec ID : S_TEXT/UTF8
Codec ID/Info : UTF-8 Plain Text
Duration : 1 h 28 min
Bit rate : 44 b/s
Count of elements : 1017
Stream size : 28.6 KiB (0%)
Title : Japanese
Language : Japanese
Default : No
Forced : No





1 个附件 售价 大小 下载 时间

Paradise.Beach.2019.DUBBED.1080p.NF.WEBRip.DDP5.1.x264-CM.torrent 0 金币 35.05K 525 次 10天前

#1楼
发帖时间:2019-11-08 19:58:21   |   回复数:1
911degrees
隐世仙人♂
非常感谢,谢谢分享
9天前 #2楼
游客组