conanlcg
超级版主

[2019] [其他] [剧情] [BD-1080P] 科林尼案 The.Collini.Case.2019.1080p.BluRay.x264-GUACAMOLE 9.83GB

-->

帖子完整标题:科林尼案 The.Collini.Case.2019.1080p.BluRay.x264-GUACAMOLE 9.83GB




◎译  名 科林尼案 / The Collini Case
◎片  名 Der Fall Collini
◎年  代 2019
◎产  地 德国
◎类  别 剧情 / 犯罪
◎语  言 德语 / 意大利语 / 拉丁语
◎上映日期 2019-04-18(德国)
◎IMDb评分 7.3/10 from 885 users
◎IMDb链接 http://www.imdb.com/title/tt8739752
◎豆瓣评分 0/10 from 0 users
◎豆瓣链接 https://movie.douban.com/subject/30391289/
◎片  长 118分钟
◎导  演 马可·克罗伊茨派因特纳 Marco Kreuzpaintner
◎编  剧 Robert Gold / Jens-Frederik Otto / 克里斯蒂安·奇贝特 Christian Zübert / Ferdinand von Schirach
◎主  演 亚历山德拉·玛丽亚·拉娜 Alexandra Maria Lara
      埃利亚斯·穆巴里克 Elyas M'Barek
      海纳·劳特尔巴赫 Heiner Lauterbach


◎标  签 德国 | 德国电影 | 二战 | 庭审 | 历史 | 23 | 2010s | 成片

◎简  介

  A young lawyer stumbles upon a vast conspiracy while investigating a brutal murder ysgou.cc case.
Video
ID : 1
Format : AVC
Format/Info : Advanced Video Codec
Format profile : [email protected]
Format settings : CABAC / 5 Ref Frames
Format settings, CABAC : Yes
Format settings, Reference frames : 5 frames
Codec ID : V_MPEG4/ISO/AVC
Duration : 2 h 2 min
Bit rate : 9 943 kb/s
Width : 1 920 pixels
Height : 808 pixels
Display aspect ratio : 2.40:1
Frame rate mode : Constant
Frame rate : 24.000 FPS
Color space : YUV
Chroma subsampling : 4:2:0
Bit depth : 8 bits
Scan type : Progressive
Bits/(Pixel*Frame) : 0.267
Stream size : 8.52 GiB (87%)
Writing library : x264 core 157 r2969 d4099dd
Encoding settings : cabac=1 / ref=5 / deblock=1:0:0 / analyse=0x3:0x113 / me=umh / subme=8 / psy=1 / psy_rd=1.00:0.00 / mixed_ref=1 / me_range=16 / chroma_me=1 / trellis=2 / 8x8dct=1 / cqm=0 / deadzone=21,11 / fast_pskip=0 / chroma_qp_offset=-2 / threads=25 / lookahead_threads=4 / sliced_threads=0 / nr=0 / decimate=1 / interlaced=0 / bluray_compat=0 / constrained_intra=0 / bframes=3 / b_pyramid=2 / b_adapt=1 / b_bias=0 / direct=1 / weightb=1 / open_gop=0 / weightp=2 / keyint=250 / keyint_min=24 / scenecut=40 / intra_refresh=0 / rc_lookahead=50 / rc=2pass / mbtree=1 / bitrate=9943 / ratetol=1.0 / qcomp=0.60 / qpmin=0 / qpmax=69 / qpstep=4 / cplxblur=20.0 / qblur=0.5 / ip_ratio=1.40 / aq=1:1.00
Default : Yes
Forced : No

Audio
ID : 2
Format : DTS
Format/Info : Digital Theater Systems
Codec ID : A_DTS
Duration : 2 h 2 min
Bit rate mode : Constant
Bit rate : 1 509 kb/s
Channel(s) : 6 channels
Channel layout : C L R Ls Rs LFE
Sampling rate : 48.0 kHz
Frame rate : 93.750 FPS (512 SPF)
Bit depth : 24 bits
Compression mode : Lossy
Stream size : 1.29 GiB (13%)
Language : German
Default : Yes
Forced : No

Text
ID : 3
Format : UTF-8
Codec ID : S_TEXT/UTF8
Codec ID/Info : UTF-8 Plain Text
Duration : 1 h 54 min
Bit rate : 42 b/s
Count of elements : 955
Stream size : 35.4 KiB (0%)
Language : English
Default : Yes
Forced : Yes

Menu
00:00:00.000 : :Kapitel 01
00:05:11.250 : :Kapitel 02
00:13:40.417 : :Kapitel 03
00:20:14.917 : :Kapitel 04
00:26:18.583 : :Kapitel 05
00:33:56.875 : :Kapitel 06
00:40:25.000 : :Kapitel 07
00:48:11.583 : :Kapitel 08
00:58:25.208 : :Kapitel 09
01:05:15.792 : :Kapitel 10
01:10:55.500 : :Kapitel 11
01:20:01.458 : :Kapitel 12
01:28:08.667 : :Kapitel 13
01:35:51.208 : :Kapitel 14
01:43:44.958 : :Kapitel 15
01:50:53.292 : :Kapitel 16
01:56:29.542 : :Kapitel 17





1 个附件 售价 大小 下载 时间

The.Collini.Case.2019.1080p.BluRay.x264-GUACAMOLE.torrent 0 金币 49.83K 658 次 7天前

#1楼
发帖时间:2019-10-10 03:28:43   |   回复数:1
911degrees
隐世仙人♂
非常感谢,谢谢分享
2天前 #2楼
游客组