conanlcg
超级版主

[更 早] [其他] [动作] [BD-1080P] 省港旗兵 Long.Arm.Of.The.Law.1984.CHINESE.1080p.BluRay.x264.DTS-FGT 9.59GB

-->

帖子完整标题:省港旗兵 Long.Arm.Of.The.Law.1984.CHINESE.1080p.BluRay.x264.DTS-FGT 9.59GB




◎译  名 Long Arm Of The Law
◎片  名 省港旗兵
◎年  代 1984
◎产  地 中国香港
◎类  别 动作 / 犯罪
◎语  言 粤语 / 英语 / 汉语普通话
◎上映日期 1984-07-11
◎IMDb评分 7.2/10 from 521 users
◎IMDb链接 http://www.imdb.com/title/tt0088107
◎豆瓣评分 7.8/10 from 9703 users
◎豆瓣链接 https://movie.douban.com/subject/1292846/
◎片  长 100分钟(DVD版)
◎导  演 麦当雄 Johnny Mak
◎编  剧 陈欣健 Philip Chan
◎主  演 陈敬 Jing Chen
      江龙 Long Jiang
      林国斌 Ben Lam
      林威 Wai Lam
      沈威 Wai Shum
      黄光亮 Kwong Leung Wong
      方烈
      蓝湘森


◎标  签 香港 | 犯罪 | 麦当雄 | 香港电影 | 动作 | 1984 | 省洪旗兵 | 警匪

◎简  介

  何耀东(林威 饰)是文革后偷渡香港的新移民,在港期间他犯下多宗刑事案件,为全港警方所通缉。大东返回大陆,召集打靶仔(蓝湘森 饰)、乌蝇头(方烈 饰)、八中(江龙 饰)、生鸡(陈敬 饰)、肥姑(黄健 饰)等一干穷哥们,商议赴港抢劫银楼。然而他们出师不利,打靶仔在穿越边境时被巡逻兵击毙。余下五人按原计划行事,到达目的地时却发现银楼铁门关闭。原来此前早有一独行达到光顾此地,被警方现场拿下。大东等人心存不甘,驱车在周围逡巡,引起警方察觉。
  一番激烈追逐,大东等方脱离险境。为了一夜暴富的梦想,他们决定继续留港,伺机行动,却因此走上一条不归途……

◎获奖情况

  第21届台北金马影展(1984)
  金马奖 最佳剧情片(提名)
  金马奖 最佳导演 麦当雄
  金马奖 最佳原著剧本(提名) 陈欣健
  金马奖 最佳摄影(提名) 古国华
  金马奖 最佳剪辑 张耀宗

  第4届香港电影金像奖(1985)
  最佳电影(提名)
  最佳导演(提名) 麦当雄
  最佳编剧(提名) 陈欣健
  最佳男配角 沈威
  最佳新演员(提名) 林威
  最佳摄影(提名) 古国华
  最佳剪接 张耀宗
  最佳服装造型设计(提名) 陈会毅
  最佳原创电影音乐(提名) 林慕德
Video
ID : 1
Format : AVC
Format/Info : Advanced Video Codec
Format profile : [email protected]
Format settings : CABAC / 4 Ref Frames
Format settings, CABAC : Yes
Format settings, Reference frames : 4 frames
Codec ID : V_MPEG4/ISO/AVC
Duration : 1 h 45 min
Bit rate : 11.5 Mb/s
Width : 1 916 pixels
Height : 1 020 pixels
Display aspect ratio : 1.85:1
Frame rate mode : Constant
Frame rate : 23.976 (24000/1001) FPS
Color space : YUV
Chroma subsampling : 4:2:0
Bit depth : 8 bits
Scan type : Progressive
Bits/(Pixel*Frame) : 0.245
Stream size : 8.47 GiB (88%)
Title : Long.Arm.Of.The.Law.1984.CHINESE.1080p.BluRay.x264.DTS-FGT
Writing library : x264 core 148 r2795M aaa9aa8
Encoding settings : cabac=1 / ref=4 / deblock=1:-2:-2 / analyse=0x3:0x113 / me=umh / subme=9 / psy=1 / psy_rd=1.00:0.15 / mixed_ref=1 / me_range=16 / chroma_me=1 / trellis=2 / 8x8dct=1 / cqm=0 / deadzone=21,11 / fast_pskip=1 / chroma_qp_offset=-3 / threads=24 / lookahead_threads=3 / sliced_threads=0 / nr=0 / decimate=1 / interlaced=0 / bluray_compat=0 / constrained_intra=0 / bframes=3 / b_pyramid=2 / b_adapt=1 / b_bias=0 / direct=3 / weightb=1 / open_gop=0 / weightp=2 / keyint=250 / keyint_min=25 / scenecut=40 / intra_refresh=0 / rc_lookahead=50 / rc=2pass / mbtree=1 / bitrate=11500 / ratetol=1.0 / qcomp=0.60 / qpmin=0 / qpmax=69 / qpstep=4 / cplxblur=20.0 / qblur=0.5 / vbv_maxrate=31250 / vbv_bufsize=31250 / nal_hrd=none / filler=0 / ip_ratio=1.40 / aq=1:1.00
Language : Chinese
Default : Yes
Forced : No

Audio
ID : 2
Format : DTS
Format/Info : Digital Theater Systems
Codec ID : A_DTS
Duration : 1 h 45 min
Bit rate mode : Constant
Bit rate : 1 509 kb/s
Channel(s) : 6 channels
Channel layout : C L R Ls Rs LFE
Sampling rate : 48.0 kHz
Frame rate : 93.750 FPS (512 SPF)
Bit depth : 16 bits
Compression mode : Lossy
Stream size : 1.11 GiB (12%)
Title : Long.Arm.Of.The.Law.1984.CHINESE.1080p.BluRay.x264.DTS-FGT
Language : Chinese
Default : Yes
Forced : No

Text
ID : 3
Format : UTF-8
Codec ID : S_TEXT/UTF8
Codec ID/Info : UTF-8 Plain Text
Duration : 1 h 39 min
Bit rate : 28 b/s
Count of elements : 1080
Stream size : 20.7 KiB (0%)
Language : English
Default : Yes
Forced : No

Menu
00:00:00.000 : en:Chapter 01
00:04:47.954 : en:Chapter 02
00:10:05.480 : en:Chapter 03
00:15:47.071 : en:Chapter 04
00:20:35.901 : en:Chapter 05
00:26:15.908 : en:Chapter 06
00:32:25.402 : en:Chapter 07
00:39:23.111 : en:Chapter 08
00:45:39.612 : en:Chapter 09
00:51:49.231 : en:Chapter 10
00:55:33.622 : en:Chapter 11
01:00:45.100 : en:Chapter 12
01:06:43.291 : en:Chapter 13
01:11:04.677 : en:Chapter 14
01:16:13.402 : en:Chapter 15
01:20:47.009 : en:Chapter 16
01:26:03.408 : en:Chapter 17
01:31:23.061 : en:Chapter 18
01:36:29.993 : en:Chapter 19
01:40:54.382 : en:Chapter 20





1 个附件 售价 大小 下载 时间

Long.Arm.Of.The.Law.1984.CHINESE.1080p.BluRay.x264.DTS-FGT.torrent 0 金币 48.49K 2373 次 7天前

#1楼
发帖时间:2019-10-10 00:00:14   |   回复数:5
PCHUN
武林高手
Thanks for sharing
7天前 #2楼
jokingcheung
一代宗师
谢谢分享
6天前 #3楼
tanchoohoon
武林盟主
感谢楼主的无私分享
6天前 #4楼
kola13
一派掌门
感谢分享
5天前 #5楼
911degrees
隐世仙人♂
非常感谢,谢谢分享
2天前 #6楼
游客组