conanlcg
超级版主

[2008] [欧美] [其他] [BD-1080P] 隔离区 Quarantine.2008.1080p.BluRay.x264-RETREAT 7.94GB

-->

帖子完整标题:隔离区 Quarantine.2008.1080p.BluRay.x264-RETREAT 7.94GB




◎译  名 隔离区 / Quarantined / Rec / 死亡直播 / 致命隔离区
◎片  名 Quarantine
◎年  代 2008
◎产  地 美国
◎类  别 悬疑 / 惊悚 / 恐怖
◎语  言 英语
◎上映日期 2008-10-10
◎IMDb评分 6.0/10 from 65355 users
◎IMDb链接 http://www.imdb.com/title/tt1082868
◎豆瓣评分 6.4/10 from 5555 users
◎豆瓣链接 https://movie.douban.com/subject/2373638/
◎片  长 89 分钟
◎导  演 John Erick Dowdle
◎编  剧 Drew Dowdle / John Erick Dowdle
◎主  演 Columbus Short
      Jennifer Carpenter
      Jay Hernandez
      Johnathon Schaech
      Rade Serbedzija
      Steve Harris
      Andrew Fiscella


◎标  签 恐怖 | 惊悚 | 美国 | 丧尸 | 僵尸 | 美国电影 | 恐怖电影 | 2008

◎简  介

  电视台女主播安吉拉(珍妮弗?卡彭特 Jennifer Carpenter 饰)第一次出镜有些紧张,因为她要参加一个在洛杉矶某消防局与队员共度夜晚的节目。安吉拉性格热情开朗,所以逐渐融入了这个团队,她不但了解了每个人的个性,而且还迅速成为了他们的开心果。然而,突然接到911的报警电话,安吉拉随这群消防队员来到了出事地点。在这座阴森可怖的大楼里,不时传出女人凄厉的尖叫,当地警方已经封锁了大楼,消防队员试图疏散被困人群,却无意中身陷困境。在隔离的区域,一个女人不知感染什么病毒,残忍地伤害了许多人。眼看着消防队员惨遭不幸,自身难保的安吉拉被逼上了绝路……

◎获奖情况

  第11届美国青少年选择奖(2009)
  最佳恐怖/惊悚电影(提名)



Video
ID : 1
Format : AVC
Format/Info : Advanced Video Codec
Format profile : [email protected]
Format settings : CABAC / 4 Ref Frames
Format settings, CABAC : Yes
Format settings, ReFrames : 4 frames
Codec ID : V_MPEG4/ISO/AVC
Duration : 1 h 29 min
Bit rate : 12.1 Mb/s
Width : 1 920 pixels
Height : 1 040 pixels
Display aspect ratio : 1.85:1
Frame rate mode : Constant
Frame rate : 23.976 FPS
Color space : YUV
Chroma subsampling : 4:2:0
Bit depth : 8 bits
Scan type : Progressive
Bits/(Pixel*Frame) : 0.253
Stream size : 7.38 GiB (93%)
Writing library : x264 core 66 r1114 a933a3e
Encoding settings : cabac=1 / ref=4 / deblock=1:0:0 / analyse=0x3:0x133 / me=umh / subme=7 / psy_rd=1.0:0.0 / mixed_ref=1 / me_range=16 / chroma_me=1 / trellis=1 / 8x8dct=1 / cqm=0 / deadzone=21,11 / chroma_qp_offset=-2 / threads=6 / nr=0 / decimate=1 / mbaff=0 / bframes=3 / b_pyramid=1 / b_adapt=1 / b_bias=0 / direct=1 / wpredb=1 / keyint=250 / keyint_min=25 / scenecut=40(pre) / rc=2pass / bitrate=12104 / ratetol=1.0 / qcomp=0.60 / qpmin=10 / qpmax=51 / qpstep=4 / cplxblur=20.0 / qblur=0.5 / ip_ratio=1.40 / pb_ratio=1.30 / aq=1:1.00
Default : Yes
Forced : No

Audio
ID : 2
Format : AC-3
Format/Info : Audio Coding 3
Commercial name : Dolby Digital
Codec ID : A_AC3
Duration : 1 h 29 min
Bit rate mode : Constant
Bit rate : 640 kb/s
Channel(s) : 6 channels
Channel layout : L R C LFE Ls Rs
Sampling rate : 48.0 kHz
Frame rate : 31.250 FPS (1536 SPF)
Bit depth : 16 bits
Compression mode : Lossy
Stream size : 409 MiB (5%)
Service kind : Complete Main
Default : Yes
Forced : No

Text
ID : 3
Format : UTF-8
Codec ID : S_TEXT/UTF8
Codec ID/Info : UTF-8 Plain Text
Default : Yes
Forced : No





2 个附件 售价 大小 下载 时间

Go.1999.1080p.BluRay.x264.DD5.1-FGT.torrent 0 金币 44.20K 210 次 3天前

Quarantine.2008.1080p.BluRay.x264-RETREAT.torrent 0 金币 40.20K 343 次 3天前

#1楼
发帖时间:2019-06-13 04:21:47   |   回复数:2
911degrees
隐世仙人♂
非常感谢,谢谢分享
2天前 #2楼
liyouchai
超凡入圣№
谢谢楼主分享资源
2天前 #3楼
游客组